Поиск

2020 Iris Bergcrantz - Young Dreams {Vanguard Music Boulevard} [24-48]

2020 Iris Bergcrantz - Young Dreams {Vanguard Music Boulevard} [24-48]
Стили:
Треклист:

01. Young Dreams (4:46)
02. Kling klang, klockan slår (4:15)
03. Nu har jag fått den jag vill ha (5:22)
04. Lost Bird (1:56)
05. Was It Written In The Stars? (6:27)
06. Head In The Clouds (0:50)
07. Vi sålde våra hemman (6:56)
08. Hur kan jag säga (6:10)

Доп. инфо:

Формат записи/Источник записи: [TR24][OF]
Наличие водяных знаков: Нет
Год издания/переиздания диска: 2020
Издатель (лейбл): Vanguard Music Boulevard
Продолжительность: 36:42
Наличие сканов в содержимом раздачи: Только обложка альбома

Контейнер: FLAC (*.flac)
Тип рипа: tracks
Разрядность: 24/48
Формат: PCM
Количество каналов: 2.0

Источник: highresaudio.com

Лог проверки качества
foobar2000 1.3.9 / Dynamic Range Meter 1.1.1
log date: 2020-01-24 13:58:14

--------------------------------------------------------------------------------
Analyzed: Iris Bergcrantz / Young Dreams
--------------------------------------------------------------------------------

DR         Peak         RMS     Duration Track
--------------------------------------------------------------------------------
DR12      -0.26 dB   -15.43 dB      4:46 01-Young Dreams
DR13      -0.53 dB   -17.13 dB      4:15 02-Kling klang, klockan slår
DR11      -0.32 dB   -15.85 dB      5:22 03-Nu har jag fått den jag vill ha
DR12      -0.32 dB   -17.26 dB      1:56 04-Lost Bird
DR12      -0.30 dB   -15.66 dB      6:27 05-Was It Written In The Stars?
DR9       -2.73 dB   -14.77 dB      0:50 06-Head In The Clouds
DR13      -0.76 dB   -18.61 dB      6:56 07-Vi sålde våra hemman
DR14      -0.33 dB   -19.23 dB      6:10 08-Hur kan jag säga
--------------------------------------------------------------------------------

Number of tracks:  8
Official DR value: DR12

Samplerate:        48000 Hz
Channels:          2
Bits per sample:   24
Bitrate:           1438 kbps
Codec:             FLAC
================================================================================
Приватный:
Нет (DHT включён)
Размер:
403.16 Мб (422,739,126 байт) » файлов: 11
Участники:
0 раздают, 0 качают (0 участников всего)
Внешние участники:
7 раздают, 2 качают (9 участников всего) [ Обновить ]
Есть вопросы - пишите личное сообщение пользователю M0p94ok.
17:52
23
Нет комментариев. Ваш будет первым!