Поиск

2020 Massimo Biolcati - Incontre {Sounderscore Inc.} [24-96]

2020 Massimo Biolcati - Incontre {Sounderscore Inc.} [24-96]
Стили:
Дата издания диска:
24 января 2020
Треклист:

1. Hello, I Lied 05:20    
2. Boo Boo's Birthday 04:26    
3. Smile 05:28    
4. Everybody Wants To Rule The World 05:32    
5. Duke Ellington's Sound Of Love 03:57    
6. Incontre 06:38    
7. How's Never 06:30    
8. Fellini 04:48    
9. Birthday Song, Almost 05:23

Доп. инфо:

Формат записи/Источник записи: [TR24][OF]
Наличие водяных знаков: Нет
Год издания: 2020
Издатель (лейбл): Sounderscore Inc.
Продолжительность: 00:48:02
Наличие сканов в содержимом раздачи: Только обложка альбома
Контейнер: FLAC (*.flac)
Тип рипа: tracks
Разрядность: 24/96
Формат: PCM
Количество каналов: 2.0
Источник (релизер): highresaudio.com

Лог проверки качества
foobar2000 1.4.8 / Dynamic Range Meter 1.1.1
log date: 2020-01-24 18:51:24

--------------------------------------------------------------------------------
Analyzed: Massimo Biolcati / Incontre
--------------------------------------------------------------------------------

DR         Peak         RMS     Duration Track
--------------------------------------------------------------------------------
DR11      -0.30 dB   -12.93 dB      5:20 01-Hello, I Lied
DR12      -0.30 dB   -14.00 dB      4:27 02-Boo Boo's Birthday
DR11      -0.30 dB   -12.80 dB      5:28 03-Smile
DR10      -0.30 dB   -12.81 dB      5:32 04-Everybody Wants to Rule the World
DR10      -0.30 dB   -12.81 dB      3:58 05-Duke Ellington's Sound of Love
DR11      -0.30 dB   -13.72 dB      6:38 06-Incontre
DR10      -0.30 dB   -12.64 dB      6:31 07-How's Never
DR12      -0.30 dB   -14.62 dB      4:48 08-Fellini
DR11      -0.30 dB   -13.34 dB      5:24 09-Birthday Song, Almost
--------------------------------------------------------------------------------

Number of tracks:  9
Official DR value: DR11
Samplerate:        96000 Hz
Channels:          2
Bits per sample:   24
Bitrate:           2746 kbps
Codec:             FLAC
================================================================================
Приватный:
Нет (DHT включён)
Размер:
942.21 Мб (987,974,175 байт) » файлов: 11
Участники:
0 раздают, 0 качают (0 участников всего)
Внешние участники:
--- [ Обновить ]
Есть вопросы - пишите личное сообщение пользователю M0p94ok.
12:47
28
Нет комментариев. Ваш будет первым!