Поиск

1962 Art Blakey & The Jazz Messengers - Caravan (2019) {RevOla} [24-44,1]

1962 Art Blakey & The Jazz Messengers - Caravan (2019) {RevOla} [24-44,1]
Стили:
Треклист:

01 - Caravan 09:46
02 - Sweet 'n' Sour 05:31
03 - In the Wee Small Hours of the Morning 04:06
04 - This Is for Albert 08:21
05 - Skylark 04:51
06 - Thermo 06:45

Доп. инфо:

Формат записи/Источник записи: [TR24][OF]
Издание: Remastered
Год издания/переиздания диска: 1962/2019
Издатель (лейбл): RevOla
Продолжительность: 00:39:17
Наличие сканов в содержимом раздачи: Нет

Контейнер: FLAC (*.flac)
Тип рипа: tracks
Разрядность: 24/44,1
Количество каналов: 2.0

Источник (релизер): Qobuz

Лог проверки качества
foobar2000 1.4.3 / Dynamic Range Meter 1.1.1
log date: 2020-01-25 08:02:31

--------------------------------------------------------------------------------
Analyzed: Art Blakey / Caravan
--------------------------------------------------------------------------------

DR         Peak         RMS     Duration Track
--------------------------------------------------------------------------------
DR15      -0.62 dB   -19.41 dB      9:46 01-Caravan
DR12      -2.46 dB   -19.67 dB      5:29 02-Sweet 'n' Sour
DR15      -5.73 dB   -25.72 dB      4:04 03-In the Wee Small Hours of the Morning
DR15      -1.03 dB   -20.84 dB      8:21 04-This Is for Albert
DR12      -2.62 dB   -18.70 dB      4:49 05-Skylark
DR14      -1.47 dB   -19.31 dB      6:45 06-Thermo
--------------------------------------------------------------------------------

Number of tracks:  6
Official DR value: DR14

Samplerate:        44100 Hz
Channels:          2
Bits per sample:   24
Bitrate:           1500 kbps
Codec:             FLAC
================================================================================
Приватный:
Нет (DHT включён)
Размер:
410.52 Мб (430,456,188 байт) » файлов: 10
Участники:
24 раздают, 12 качают (36 участников всего)
Внешние участники:
5 раздают, 2 качают (7 участников всего) [ Обновить ]
Есть вопросы - пишите личное сообщение пользователю M0p94ok.
14:20
22
Нет комментариев. Ваш будет первым!