Поиск

2017 Lhasa de Sela - Lhasa Live in Reykjavik {Audiogram, Tôt Ou Tard} [24-44,1]

2017 Lhasa de Sela - Lhasa Live in Reykjavik {Audiogram, Tôt Ou Tard} [24-44,1]
Треклист:

01. Is Anything Wrong (05:11)
02. Bells (06:05)
03. Rising (04:26)
04. Con Toda Palabra (05:16)
05. Love Came Here (03:47)
06. The Lonely Spider (03:48)
07. Fool's Gold (04:24)
08. Fish on Land (05:01)
09. La Confession (05:57)
10. De Cara a la Pared (06:11)
11. 1001 Nights (04:15)
12. Para el Fin del Mundo (08:32)
13. A Change is Gonna Come (written by Sam Cooke) (05:44)
14. Anyone & Everyone (03:52)

Доп. инфо:

Формат записи/Источник записи: [TR24][OF]
Наличие водяных знаков: Нет
Год издания/переиздания диска: 2017
Издатель (лейбл): Audiogram / Tôt Ou Tard
Продолжительность: 01:12:36
Наличие сканов в содержимом раздачи: Да (сканы)
Источник (релизер): qobuz

Контейнер: FLAC (*.flac)
Тип рипа: tracks
Разрядность: 24/44,1
Формат: PCM
Количество каналов: 2.0

Лог проверки качества
foobar2000 1.3.7 / Dynamic Range Meter 1.1.1
log date: 2020-01-22 13:27:02

--------------------------------------------------------------------------------
Analyzed: Lhasa De Sela / Live In Reykjavik
--------------------------------------------------------------------------------

DR         Peak         RMS     Duration Track
--------------------------------------------------------------------------------
DR12      -2.47 dB   -19.15 dB      5:11 01-Is Anything Wrong (Live)
DR12      -1.58 dB   -19.46 dB      6:06 02-Bells (Live)
DR12      -2.02 dB   -17.85 dB      4:26 03-Rising (Live)
DR12      -1.00 dB   -15.34 dB      5:17 04-Con Toda Palabra (Live)
DR12      -1.46 dB   -15.94 dB      3:48 05-Love Came Here (Live)
DR12      -2.59 dB   -17.77 dB      3:49 06-The Lonely Spider (Live)
DR12      -1.58 dB   -18.52 dB      4:25 07-Fool's Gold (Live)
DR11      -4.14 dB   -19.69 dB      5:02 08-Fish on Land (Live)
DR12      -1.00 dB   -16.35 dB      5:57 09-La Confession (Live)
DR12      -1.00 dB   -17.10 dB      6:12 10-De Cara a la Pared (Live)
DR15      -5.57 dB   -25.56 dB      4:15 11-1001 Nights (Live)
DR12      -0.99 dB   -16.75 dB      8:32 12-Para el Fin del Mundo (Live)
DR13      -1.00 dB   -18.14 dB      5:45 13-A Change Is Gonna Come (Live)
DR13      -4.22 dB   -21.16 dB      3:52 14-Anyone & Everyone (Live)
--------------------------------------------------------------------------------

Number of tracks:  14
Official DR value: DR12

Samplerate:        44100 Hz
Channels:          2
Bits per sample:   24
Bitrate:           1404 kbps
Codec:             FLAC
================================================================================
Приватный:
Нет (DHT включён)
Размер:
742.58 Мб (778,646,510 байт) » файлов: 21
Участники:
17 раздают, 1 качают (18 участников всего)
Внешние участники:
10 раздают, 3 качают (13 участников всего) [ Обновить ]
Скорость:
545.84 Кб/c 0/c
Есть вопросы - пишите личное сообщение пользователю M0p94ok.
17:41
33
Нет комментариев. Ваш будет первым!