Поиск

2018 Hammock - Universalis {Hammock Music HMK-024} [24-44,1]

2018 Hammock - Universalis {Hammock Music HMK-024} [24-44,1]
Место записи:
Studio 37 in Nashville, TN and Breathturn in Franklin, TN
Дата издания диска:
7 декабря 2018
Номер по каталогу:
HMK-024
Носитель:
WEB
Формат:
PCM
Тип рипа:
tracks
Контейнер:
FLAC (*.flac)
Количество каналов:
2.0
Разрядность/ЧД:
24/44,1
Формат записи/Источник записи:
[TR24][OF]
Время звучания:
00:55:30
Наличие сканов:
буклет pdf
Наличие водяных знаков:
нет
Страна-производитель диска (релиза):
USA
Релизёр (источник):
M0p94ok
Треклист:

01    Mouth To Dust... Waiting    4:26
02    Scattering Light    4:47
03    Universalis    5:27
04    Cliffside    5:52
05    Always Before Your Eyes    4:26
06    We Are More Than We Are    4:34
07    Tether Of Yearning    4:47
08    Clothed With Sky    2:45
09    Thirst    6:27
10    We Watched You Disappear    5:53
11    Tremendum    6:06

Tracks 1, 3, 5, 7, 8, 10 and 11 mixed at Vox-Ton in Berlin, Germany
Tracks 2, 4, 6 and 9 mixed at Tarquin Studios, Bridgeport, CT

Mastered by Francesco Donadello at Calyx, Berlin, Germany

Лог проверки качества
foobar2000 1.4.3 / Dynamic Range Meter 1.1.1
log date: 2020-03-04 18:53:00

--------------------------------------------------------------------------------
Analyzed: Hammock / Universalis
--------------------------------------------------------------------------------

DR         Peak         RMS     Duration Track
--------------------------------------------------------------------------------
DR9       -0.10 dB   -13.67 dB      4:26 01-Mouth to Dust... Waiting
DR10      -0.10 dB   -13.46 dB      4:47 02-Scattering Light
DR8       -0.09 dB   -11.52 dB      5:28 03-Universalis
DR8       -0.09 dB   -10.86 dB      5:52 04-Cliffside
DR9       -0.10 dB   -13.13 dB      4:26 05-Always Before Your Eyes
DR6       -0.08 dB    -8.96 dB      4:34 06-We Are More Than We Are
DR9       -0.10 dB   -13.12 dB      4:48 07-Tether of Yearning
DR10      -0.10 dB   -13.73 dB      2:46 08-Clothed with Sky
DR9       -0.08 dB   -11.73 dB      6:27 09-Thirst
DR8       -0.10 dB   -13.47 dB      5:54 10-We Watched You Disappear
DR10      -0.10 dB   -13.51 dB      6:07 11-Tremendum
--------------------------------------------------------------------------------

Number of tracks:  11
Official DR value: DR9

Samplerate:        44100 Hz
Channels:          2
Bits per sample:   24
Bitrate:           1311 kbps
Codec:             FLAC
================================================================================
Приватный:
Нет (DHT включён)
Размер:
536.75 Мб (562,821,525 байт) » файлов: 14
Участники:
4 раздают, 0 качают (4 участников всего)
Внешние участники:
--- [ Обновить ]
Есть вопросы - пишите личное сообщение пользователю M0p94ok.
19:10
17
Нет комментариев. Ваш будет первым!