Поиск

2019 Paolo Fresu, Richard Galliano, Jan Lundgren - Mare Nostrum III {ACT} [24-96]

2019 Paolo Fresu, Richard Galliano, Jan Lundgren - Mare Nostrum III {ACT} [24-96]
Треклист:

01. Blues sur Seine (04:53)
02. Pavese (04:56)
03. Love Land (04:23)
04. The Windmills of Your Mind (03:37)
05. I'te vurria vasa (04:33)
06. Le jardin des Fees (05:12)
07. Del soldato in trincea (02:14)
08. Ronneby (03:36)
09. Love Theme from 'the Getaway' (03:09)
10. Human Requiem (04:30)
11. Letter to My Mother (05:09)
12. Love in Return (04:26)
13. Perfetta (03:17)
14. The Magic Stroll (02:59)
15. Prayer (04:13)

Лог проверки качества
foobar2000 1.4 / Dynamic Range Meter 1.1.1
log date: 2019-02-03 15:10:31

--------------------------------------------------------------------------------
Analyzed: Paolo Fresu, Richard Galliano & Jan Lundgren / Mare Nostrum III
--------------------------------------------------------------------------------

DR         Peak         RMS     Duration Track
--------------------------------------------------------------------------------
DR12      -1.00 dB   -17.50 dB      4:54 01-Blues sur Seine
DR10      -1.15 dB   -14.74 dB      4:56 02-Pavese
DR10      -1.00 dB   -12.57 dB      4:23 03-Love Land
DR10      -1.00 dB   -15.08 dB      3:38 04-The Windmills of Your Mind
DR12      -1.00 dB   -15.17 dB      4:33 05-I'te vurria vasá
DR10      -1.00 dB   -13.92 dB      5:12 06-Le jardin des Fées
DR8       -1.00 dB   -13.57 dB      2:15 07-Del soldato in trincea
DR10      -1.00 dB   -13.60 dB      3:37 08-Ronneby
DR11      -1.00 dB   -14.93 dB      3:10 09-Love Theme from 'The Getaway'
DR11      -2.05 dB   -16.47 dB      4:30 10-Human Requiem
DR11      -1.00 dB   -15.44 dB      5:09 11-Letter to My Mother
DR10      -1.00 dB   -13.27 dB      4:26 12-Love in Return
DR10      -3.52 dB   -17.61 dB      3:18 13-Perfetta
DR11      -1.00 dB   -15.62 dB      2:59 14-The Magic Stroll
DR10      -1.00 dB   -15.35 dB      4:13 15-Prayer
--------------------------------------------------------------------------------

Number of tracks:  15
Official DR value: DR10
Samplerate:        96000 Hz
Channels:          2
Bits per sample:   24
Bitrate:           2502 kbps
Codec:             FLAC
================================================================================
Скачивание доступно после регистрации!!
Приватный:
Нет (DHT включён)
Размер:
1.09 Гб (1,168,807,168 байт) » файлов: 18
Участники:
0 раздают, 0 качают (0 участников всего)
Внешние участники:
34 раздают, 11 качают (45 участников всего) [ Обновить ]
15:07
59
Нет комментариев. Ваш будет первым!