Поиск

2016 Brian Lynch - Madera Latino: A Latin Jazz perspective on the music Of Woody Shaw {Hollistic Musicworks HMW 13,14} [24-88,2]

2016 Brian Lynch - Madera Latino: A Latin Jazz perspective on the music Of Woody Shaw {Hollistic Musicworks HMW 13,14} [24-88,2]
Стили:
Дата издания диска:
26 сентября 2016
Номер по каталогу:
HMW 13/14
Носитель:
WEB
Контейнер:
FLAC (*.flac)
Тип рипа:
tracks
Разрядность/ЧД:
24/88,2
Формат:
PCM
Количество каналов:
2.0
Битрейт аудио:
lossless
Время звучания:
01:49:28
Наличие сканов:
буклет pdf
Наличие водяных знаков:
нет
Релизёр (источник):
baltiysky
Треклист:

1. Zoltan (feat. Dave Douglas, Etienne Charles & Diego Urcola) (10:24)
2. Sweet Love of Mine (feat. Michael Rodriguez) (07:32)
3. Time Is Right (feat. Sean Jones & Philip Dizack) (11:17)
4. Just a Ballad for Woody (08:27)
5. In a Capricornian Way (feat. Dave Douglas) (08:34)
6. Blues for Woody and Khalid (feat. Sean Jones & Philip Dizack) (09:08)
7. Tomorrow's Destiny (feat. Sean Jones) (09:06)
8. Joshua C. (feat. Michael Rodriguez & Josh Evans) (09:57)
9. On the New Ark (feat. Dave Douglas & Etienne Charles) (08:28)
10. Song of Songs (feat. Michael Rodriguez & Josh Evans) (11:11)
11. Madera Latino Suite (feat. Etienne Charles & Diego Urcola) (15:18)

Лог проверки качества
foobar2000 1.4.2 / Dynamic Range Meter 1.1.1
log date: 2019-02-04 00:12:09

--------------------------------------------------------------------------------
Analyzed: Brian Lynch / Madera Latino: A Latin Jazz Interpretation On The Music Of Woody Shaw
--------------------------------------------------------------------------------

DR         Peak         RMS     Duration Track
--------------------------------------------------------------------------------
DR8       -0.50 dB   -10.19 dB     10:25 01-Zoltan
DR9       -0.50 dB   -11.59 dB      7:32 02-Sweet Love Of Mine
DR9       -0.50 dB   -12.00 dB     11:18 03-Time Is Right
DR11      -0.50 dB   -14.34 dB      8:28 04-Just A Ballad For Woody
DR10      -0.50 dB   -11.91 dB      8:34 05-In A Capricornian Way
DR9       -0.50 dB   -11.51 dB      9:09 06-Blues For Woody And Khalid
DR8       -0.50 dB   -10.67 dB      9:06 07-Tomorrow's Destiny
DR9       -0.50 dB   -11.10 dB      9:58 08-Joshua C.
DR8       -0.50 dB   -10.65 dB      8:28 09-On The New Ark
DR9       -0.50 dB   -11.12 dB     11:11 10-Song Of Songs
DR8       -0.50 dB   -12.12 dB     15:19 11-Madera Latino Suite
--------------------------------------------------------------------------------

Number of tracks:  11
Official DR value: DR9

Samplerate:        88200 Hz
Channels:          2
Bits per sample:   24
Bitrate:           2590 kbps
Codec:             FLAC
================================================================================
Скачивание доступно после регистрации!!
Приватный:
Нет (DHT включён)
Размер:
2.11 Гб (2,261,198,641 байт) » файлов: 14
Участники:
3 раздают, 0 качают (3 участников всего)
Внешние участники:
--- [ Обновить ]
Скорость:
0/c 6.96 Кб/c
17:14
30
Нет комментариев. Ваш будет первым!