Поиск

2001 Steve Tyrell - Standard Time {Sony 86006} [24-88,2]

2001 Steve Tyrell - Standard Time {Sony 86006} [24-88,2]
Стили:
Формат записи/Источник записи:
[TR24][OF]
Место записи:
David Horowitz Music, New York, NY; Schnee Studios, Los Angeles, CA; Sear Sound Studios, New York, NY; The Hit Factory, New York, NY; The Warehouse, New York, NY; Tyrell Studios, Los Angeles, CA
Дата издания диска:
2 октября 2001
Издатель (лейбл):
Номер по каталогу:
86006
Носитель:
WEB
Контейнер:
FLAC (*.flac)
Тип рипа:
tracks
Разрядность/ЧД:
24/88,2
Формат:
PCM
Количество каналов:
2.0
Время звучания:
00:55:56
Наличие сканов:
только обложка
Наличие водяных знаков:
нет
Релизёр (источник):
morrisville
Треклист:

1    It Had To Be You    
2    Until The Real Thing Comes Along    
3    Ain't Misbehavin'    
4    That Old Feeling    
5    Baby, It's Cold Outside
6    Stardust    
7    It All Depends On You    
8    As Time Goes By    
9    I Wonder    
10    What A Little Moonlight Can Do    
11    Why Was I Born    
12    Let's Fall In Love    
13    Our Love Is Here To Stay    
14    Someone To Watch Over Me    
15    Everytime We Say Goodbye    
16    Remembering "Sweets"

Лог проверки качества
foobar2000 1.3.17 / Dynamic Range Meter 1.1.1
log date: 2018-03-24 17:57:08

--------------------------------------------------------------------------------
Analyzed: Steve Tyrell / Standard Time
--------------------------------------------------------------------------------

DR         Peak         RMS     Duration Track
--------------------------------------------------------------------------------
DR14      -0.36 dB   -17.62 dB      3:24 01-It Had To Be You
DR12      -1.63 dB   -16.40 dB      3:27 02-Until The Real Thing Comes Along
DR13      -0.37 dB   -16.97 dB      3:54 03-Ain't Misbehavin'
DR12      -2.15 dB   -16.87 dB      4:12 04-That Old Feeling
DR14      -0.62 dB   -17.50 dB      3:21 05-Baby, It's Cold Outside
DR13      -1.93 dB   -17.42 dB      4:56 06-Stardust
DR14      -0.24 dB   -17.81 dB      3:14 07-It All Depends On You
DR13      -1.15 dB   -17.53 dB      3:57 08-As Time Goes By
DR15      -0.76 dB   -17.86 dB      2:55 09-I Wonder
DR13      -0.36 dB   -15.52 dB      3:45 10-What A Little Moonlight Can Do
DR12      -1.45 dB   -17.02 dB      3:10 11-Why Was I Born
DR14      -0.73 dB   -17.27 dB      2:36 12-Let's Fall In Love
DR14      -0.56 dB   -17.28 dB      4:04 13-Our Love Is Here To Stay
DR12      -2.57 dB   -19.02 dB      3:50 14-Someone To Watch Over Me
DR12      -1.62 dB   -16.52 dB      3:35 15-Everytime We Say Goodbye
DR13      -1.62 dB   -17.36 dB      1:42 16-Remembering "Sweets"
--------------------------------------------------------------------------------

Number of tracks:  16
Official DR value: DR13

Samplerate:        88200 Hz
Channels:          2
Bits per sample:   24
Bitrate:           2745 kbps
Codec:             FLAC
================================================================================
Приватный:
Нет (DHT включён)
Размер:
1.10 Гб (1,185,246,006 байт) » файлов: 18
Участники:
1 раздают, 0 качают (1 участников всего)
Внешние участники:
--- [ Обновить ]
13:38
26
13:41