Поиск

2019 Joe Lovano, Marilyn Crispell, Carmen Castaldi - Trio Tapestry {ECM} [24-96]

2019 Joe Lovano, Marilyn Crispell, Carmen Castaldi - Trio Tapestry {ECM} [24-96]
Стили:
Формат записи/Источник записи:
[TR24][OF]
Страна-производитель диска (релиза):
Germany
Дата записи диска:
март 2018
Место записи:
Sear Sound, New York
Издатель (лейбл):
Носитель:
WEB
Контейнер:
FLAC (*.flac)
Тип рипа:
tracks
Разрядность/ЧД:
24/96
Формат:
PCM
Количество каналов:
2.0
Время звучания:
00:48:05
Наличие сканов:
буклет pdf
Наличие водяных знаков:
нет
Релизёр (источник):
https://www.highresaudio.com/en/album/view/rebruk/joe-lovano-marilyn-crispell-carmen-castaldi-trio-tapestry
Треклист:

01. One Time In (03:41)
02. Seeds Of Change (05:14)
03. Razzle Dazzle (03:40)
04. Sparkle Lights (04:07)
05. Mystic (08:25)
06. Piano/Drum Episode (03:40)
07. Gong Episode (02:00)
08. Rare Beauty (06:18)
09. Spirit Lake (03:51)
10. Tarrassa (04:15)
11. The Smiling Dog (02:55)

Лог проверки качества
foobar2000 1.4 / Dynamic Range Meter 1.1.1
log date: 2019-02-07 19:49:05

--------------------------------------------------------------------------------
Analyzed: Joe Lovano, Marilyn Crispell & Carmen Castaldi / Trio Tapestry
--------------------------------------------------------------------------------

DR         Peak         RMS     Duration Track
--------------------------------------------------------------------------------
DR13      -5.47 dB   -24.23 dB      3:42 01-One Time In
DR14      -1.95 dB   -20.46 dB      5:14 02-Seeds Of Change
DR12      -7.38 dB   -23.56 dB      3:40 03-Razzle Dazzle
DR13      -4.59 dB   -22.47 dB      4:08 04-Sparkle Lights
DR15      -0.63 dB   -21.69 dB      8:25 05-Mystic
DR12     -10.53 dB   -29.41 dB      3:40 06-Piano/Drum Episode
DR14      -8.91 dB   -29.15 dB      2:01 07-Gong Episode
DR15      -0.31 dB   -18.77 dB      6:18 08-Rare Beauty
DR14      -0.49 dB   -17.60 dB      3:51 09-Spirit Lake
DR12      -0.63 dB   -18.92 dB      4:16 10-Tarrassa
DR13      -1.15 dB   -17.59 dB      2:56 11-The Smiling Dog
--------------------------------------------------------------------------------

Number of tracks:  11
Official DR value: DR13
Samplerate:        96000 Hz
Channels:          2
Bits per sample:   24
Bitrate:           2627 kbps
Codec:             FLAC
================================================================================
Приватный:
Нет (DHT включён)
Размер:
862.19 Мб (904,073,330 байт) » файлов: 14
Участники:
0 раздают, 0 качают (0 участников всего)
Внешние участники:
20 раздают, 7 качают (27 участников всего) [ Обновить ]
Никого нет на раздаче - пишите личное сообщение M0p94ok
No seeders - write personal message to M0p94ok
22:57
85
Нет комментариев. Ваш будет первым!