Поиск

2019 Chet Baker - Sings And Plays For Lovers, vol. 1 {RevOla} [24-44,1]

2019 Chet Baker - Sings And Plays For Lovers, vol. 1 {RevOla} [24-44,1]
Треклист:

01. My Funny Valentine (Version 1) (2:20)
02. I Fall In Love Too Easily (Version 1) (2:06)
03. How Long Has This Been Going On? (4:10)
04. The Thrill Is Gone (2:51)
05. While My Lady Sleeps (4:21)
06. But Not For Me (3:04)
07. Time After Time (2:46)
08. I Get Along Without You Very Well (2:59)
09. There Will Never Be Another You (3:00)
10. Look For The Silver Lining (2:41)
11. The More I See You (3:06)
12. This Is Always (3:09)
13. Someone To Watch Over Me (3:03)
14. Angel Eyes (4:34)
15. Grey December (3:43)
16. I Wish I Knew (4:01)
17. Daybreak (2:42)
18. You Make Me Feel So Young (3:40)
19. Just Friends (2:44)
20. I Remember You (3:16)
21. Let's Get Lost (3:44)
22. I'm Old Fashioned (5:04)

Формат записи/Источник записи: [TR24][OF]
Наличие водяных знаков: Нет
Год издания: 2019
Издатель (лейбл): RevOla
Продолжительность: 01:12:54
Наличие сканов в содержимом раздачи: Только обложка альбома
Контейнер: FLAC (*.flac)
Тип рипа: tracks
Разрядность: 24/44.1
Формат: PCM
Количество каналов: 2.0
Источник (релизер): qobuz.com

Лог проверки качества
foobar2000 1.4 / Dynamic Range Meter 1.1.1
log date: 2019-02-07 21:56:34

--------------------------------------------------------------------------------
Analyzed: Chet Baker / Sings And Plays For Lovers Vol 1 (Remastered)
--------------------------------------------------------------------------------

DR         Peak         RMS     Duration Track
--------------------------------------------------------------------------------
DR12      -3.35 dB   -18.87 dB      2:20 01-My Funny Valentine (Version 1 Remastered)
DR15      -2.45 dB   -21.32 dB      2:06 02-I Fall In Love Too Easily (Version 1 Remastered)
DR13      -3.33 dB   -19.10 dB      4:10 03-How Long Has This Been Going On? (Remastered)
DR12      -3.10 dB   -18.19 dB      2:51 04-The Thrill Is Gone (Remastered)
DR11      -3.06 dB   -18.41 dB      4:21 05-While My Lady Sleeps (Remastered)
DR12      -2.44 dB   -17.63 dB      3:04 06-But Not For Me (Remastered)
DR12      -2.85 dB   -20.34 dB      2:46 07-Time After Time (Remastered)
DR13      -2.90 dB   -19.26 dB      2:59 08-I Get Along Without You Very Well (Remastered)
DR14      -2.58 dB   -20.12 dB      3:00 09-There Will Never Be Another You (Remastered)
DR13      -2.46 dB   -18.71 dB      2:41 10-Look For The Silver Lining (Remastered)
DR11      -4.70 dB   -18.66 dB      3:06 11-The More I See You (Remastered)
DR10      -2.66 dB   -15.36 dB      3:09 12-This Is Always (Remastered)
DR11      -3.16 dB   -18.08 dB      3:03 13-Someone To Watch Over Me (Remastered)
DR9       -0.41 dB   -13.49 dB      4:34 14-Angel Eyes (Remastered)
DR13      -2.06 dB   -19.32 dB      3:43 15-Grey December (Remastered)
DR14      -2.17 dB   -18.85 dB      4:01 16-I Wish I Knew (Remastered)
DR16      -1.62 dB   -19.21 dB      2:42 17-Daybreak (Remastered)
DR11      -3.69 dB   -18.18 dB      3:40 18-You Make Me Feel So Young (Remastered)
DR16      -1.49 dB   -20.48 dB      2:44 19-Just Friends (Remastered)
DR15      -2.06 dB   -19.78 dB      3:16 20-I Remember You (Remastered)
DR15      -2.92 dB   -20.36 dB      3:44 21-Let's Get Lost (Remastered)
DR10      -2.95 dB   -16.63 dB      5:04 22-I'm Old Fashioned (Remastered)
--------------------------------------------------------------------------------

Number of tracks:  22
Official DR value: DR13
Samplerate:        44100 Hz
Channels:          2
Bits per sample:   24
Bitrate:           1346 kbps
Codec:             FLAC
================================================================================
Скачивание доступно после регистрации!!
Приватный:
Нет (DHT включён)
Размер:
675.82 Мб (708,646,836 байт) » файлов: 24
Участники:
0 раздают, 0 качают (0 участников всего)
Внешние участники:
34 раздают, 11 качают (45 участников всего) [ Обновить ]
23:09
36
Нет комментариев. Ваш будет первым!