Поиск

2019 Angel Bat Dawid - The Oracle {International Anthem IARC0023} [24-44,1]

2019 Angel Bat Dawid - The Oracle {International Anthem IARC0023} [24-44,1]
Формат записи/Источник записи:
[TR24][OF]
Дата издания диска:
8 февраля 2019
Номер по каталогу:
International Anthem IARC0023
Носитель:
WEB
Контейнер:
FLAC (*.flac)
Тип рипа:
tracks
Разрядность/ЧД:
24/44,1
Формат:
PCM
Количество каналов:
2.0
Битрейт аудио:
lossless
Время звучания:
00:43:50
Наличие сканов:
только обложка
Наличие водяных знаков:
нет
Релизёр (источник):
celtic777
Треклист:

01 - Destination (Dr. Yusef Lateef) (02:22)
02 - Black Family (06:18)
03 - What Shall I Tell My Children Who Are Black (Dr. Margaret Burroughs) (03:20)
04 - Impepho (03:39)
05 - We Are Starzz (04:23)
06 - London (02:46)
07 - Capetown (feat. Asher Simiso Gamedze) (15:36)
08 - The Oracle (05:23)

Лог проверки качества
foobar2000 1.4 / Dynamic Range Meter 1.1.1
log date: 2019-02-10 23:23:24

--------------------------------------------------------------------------------
Analyzed: Angel Bat Dawid / The Oracle
--------------------------------------------------------------------------------

DR         Peak         RMS     Duration Track
--------------------------------------------------------------------------------
DR10      -1.02 dB   -14.78 dB      2:23 01-Destination (Dr. Yusef Lateef)
DR12      -1.33 dB   -15.26 dB      6:19 02-Black Family
DR11      -1.61 dB   -14.99 dB      3:20 03-What Shall I Tell My Children Who Are Black (Dr. Margaret Burroughs)
DR10      -2.64 dB   -14.32 dB      3:40 04-Impepho
DR9       -1.47 dB   -14.57 dB      4:23 05-We Are Starzz
DR6       -4.32 dB   -12.57 dB      2:46 06-London
DR12      -1.02 dB   -14.33 dB     15:36 07-Capetown (feat. Asher Simiso Gamedze)
DR8       -3.94 dB   -14.18 dB      5:23 08-The Oracle
--------------------------------------------------------------------------------

Number of tracks:  8
Official DR value: DR10

Samplerate:        44100 Hz
Channels:          2
Bits per sample:   24
Bitrate:           1190 kbps
Codec:             FLAC
================================================================================
Скачивание доступно после регистрации!!
Приватный:
Нет (DHT включён)
Размер:
355.80 Мб (373,080,461 байт) » файлов: 10
Участники:
0 раздают, 0 качают (0 участников всего)
Внешние участники:
8 раздают, 2 качают (10 участников всего) [ Обновить ]
Скорость:
0/c 3.02 Кб/c
00:23
25
Нет комментариев. Ваш будет первым!