Поиск

2019 Pujuila Quartet - Hypocrisis {B LBM 016} [24-88,2]

2019 Pujuila Quartet - Hypocrisis {B LBM 016} [24-88,2]
Формат записи/Источник записи:
[TR24][OF]
Страна-производитель диска (релиза):
France
Дата записи диска:
13 февраля 2018
Место записи:
Dynamo de Banlieues Bleues a Pantin 
Дата издания диска:
8 февраля 2019
Номер по каталогу:
B Records LBM 016
Носитель:
WEB
Контейнер:
FLAC (*.flac)
Тип рипа:
tracks
Разрядность/ЧД:
24/88,2
Формат:
PCM
Количество каналов:
2.0
Время звучания:
00:53:07
Наличие сканов:
буклет pdf
Наличие водяных знаков:
нет
Релизёр (источник):
Igor_O
Треклист:

01. Sweet Toad (09:32)
02. Hypocrisis (06:52)
03. I Will (04:01)
04. Ne dis pas (07:50)
05. Fêlure (08:23)
06. Sombre héros (04:59)
07. Viscerum (05:48)
08. Chicago's Frog (05:42)

Лог проверки качества
foobar2000 1.4.2 / Dynamic Range Meter 1.1.1
log date: 2019-02-08 12:40:26

--------------------------------------------------------------------------------
Analyzed: Pujuila Quartet / Hypocrisis
--------------------------------------------------------------------------------

DR         Peak         RMS     Duration Track
--------------------------------------------------------------------------------
DR12      -0.10 dB   -14.92 dB      9:33 01-Sweet Toad
DR12      -0.10 dB   -14.85 dB      6:53 02-Hypocrisis
DR13      -0.10 dB   -16.66 dB      4:02 03-I Will
DR13      -0.10 dB   -15.13 dB      7:50 04-Ne dis pas
DR13      -0.10 dB   -16.19 dB      8:23 05-Fêlure
DR11      -3.75 dB   -19.57 dB      4:59 06-Sombre héros
DR12      -0.38 dB   -16.95 dB      5:48 07-Viscerum
DR13      -0.10 dB   -17.20 dB      5:42 08-Chicago's Frog
--------------------------------------------------------------------------------

Number of tracks:  8
Official DR value: DR12

Samplerate:        88200 Hz
Channels:          2
Bits per sample:   24
Bitrate:           2502 kbps
Codec:             FLAC
================================================================================

Скачивание доступно после регистрации!!
Приватный:
Да (DHT отключён)
Размер:
948.53 Мб (994,606,051 байт) » файлов: 11
Участники:
3 раздают, 0 качают (3 участников всего)
Внешние участники:
11 раздают, 4 качают (15 участников всего) [ Обновить ]
14:38
28
Нет комментариев. Ваш будет первым!