Поиск

2019 Ralph Alessi, Ravi Coltrane, Andy Milne, Drew Gress & Mark Ferber - Imaginary Friends {ECM} [24-96]

2019 Ralph Alessi, Ravi Coltrane, Andy Milne, Drew Gress & Mark Ferber - Imaginary Friends {ECM} [24-96]
Треклист:

01. Iram Issela (09:47)
02. Oxide (05:38)
03. Improper Authorities (06:06)
04. Pittance (06:17)
05. Fun Room (08:25)
06. Imaginary Friends (06:10)
07. Around The Corner (04:01)
08. Melee (10:26)
09. Good Boy (03:42)

Лог проверки качества
foobar2000 1.4 / Dynamic Range Meter 1.1.1
log date: 2019-02-03 14:26:13

--------------------------------------------------------------------------------
Analyzed: Ralph Alessi / Imaginary Friends
--------------------------------------------------------------------------------

DR         Peak         RMS     Duration Track
--------------------------------------------------------------------------------
DR14      -0.38 dB   -18.34 dB      9:48 01-Iram Issela
DR13      -5.28 dB   -23.13 dB      5:39 02-Oxide
DR14      -0.35 dB   -17.78 dB      6:07 03-Improper Authorities
DR15      -1.56 dB   -22.24 dB      6:17 04-Pittance
DR15      -0.39 dB   -18.19 dB      8:26 05-Fun Room
DR12      -0.55 dB   -18.15 dB      6:10 06-Imaginary Friends
DR13      -1.83 dB   -19.72 dB      4:02 07-Around The Corner
DR14      -0.37 dB   -16.96 dB     10:26 08-Melee
DR13      -2.22 dB   -20.30 dB      3:42 09-Good Boy
--------------------------------------------------------------------------------

Number of tracks:  9
Official DR value: DR14
Samplerate:        88200 Hz
Channels:          2
Bits per sample:   24
Bitrate:           2218 kbps
Codec:             FLAC
================================================================================
Приватный:
Нет (DHT включён)
Размер:
1.06 Гб (1,133,158,208 байт) » файлов: 12
Участники:
3 раздают, 1 качают (4 участников всего)
Внешние участники:
11 раздают, 4 качают (15 участников всего) [ Обновить ]
Скорость:
6.63 Мб/c 0/c
Никого нет на раздаче - пишите личное сообщение M0p94ok
No seeders - write personal message to M0p94ok
14:24
53
Нет комментариев. Ваш будет первым!