Поиск

2019 Veronika Harcsa & Balint Gyemant - Shapeshifter {Traumton} [24-44,1]

2019 Veronika Harcsa & Balint Gyemant - Shapeshifter {Traumton} [24-44,1]
Треклист:

01. Listen To Me Now (6:03)
02. San Francisco (4:36)
03. First Night (3:24)
04. Second Night (6:47)
05. Last Night (5:20)
06. Serge With Holy Scar (8:52)
07. Shapeshifter (4:10)
08. Boris's Rebel (4:59)

Лог проверки качества
foobar2000 1.4 / Dynamic Range Meter 1.1.1
log date: 2019-02-02 17:55:15

--------------------------------------------------------------------------------
Analyzed: Veronika Harcsa & Bálint Gyémánt / Shapeshifter
--------------------------------------------------------------------------------

DR         Peak         RMS     Duration Track
--------------------------------------------------------------------------------
DR13      -0.71 dB   -16.73 dB      6:02 01-Listen To Me Now
DR9       -0.50 dB   -14.92 dB      4:34 02-San Francisco
DR12      -2.39 dB   -19.18 dB      3:23 03-First Night
DR11      -0.77 dB   -15.68 dB      6:47 04-Second Night
DR9       -0.50 dB   -11.55 dB      5:20 05-Last Night
DR11      -0.52 dB   -13.32 dB      8:49 06-Serge With Holy Scar
DR10      -0.48 dB   -13.22 dB      4:09 07-Shapeshifter
DR10      -0.49 dB   -14.48 dB      4:57 08-Boris's Rebel
--------------------------------------------------------------------------------

Number of tracks:  8
Official DR value: DR11
Samplerate:        44100 Hz
Channels:          2
Bits per sample:   24
Bitrate:           1497 kbps
Codec:             FLAC
================================================================================
Приватный:
Нет (DHT включён)
Размер:
456.43 Мб (478,597,701 байт) » файлов: 10
Участники:
4 раздают, 0 качают (4 участников всего)
Внешние участники:
5 раздают, 2 качают (7 участников всего) [ Обновить ]
Никого нет на раздаче - пишите личное сообщение M0p94ok
No seeders - write personal message to M0p94ok
13:37
90
Нет комментариев. Ваш будет первым!