Поиск

2013 Al Di Meola - All Your Life (A Tribute To The Beatles) {Valiana-Songsurfer} [24-96]

2013 Al Di Meola - All Your Life (A Tribute To The Beatles) {Valiana-Songsurfer} [24-96]
Треклист:

1. In My Life (03:51)
2. And I Love Her (04:30)
3. Because (04:07)
4. Michelle (05:12)
5. I Will (02:52)
6. Eleanor Rigby (02:50)
7. Penny Lane (05:41)
8. Blackbird (04:38)
9. I Am the Walrus (04:04)
10. Day in the Life (03:01)
11. Being for the Benefit of Mr. Kite (03:09)
12. With a Little Help from My Friends (04:15)
13. If I Fell (02:59)
14. She's Leaving Home (03:22)

Recorded in analog at Abbey Road Studios in London in three recording sessions between May 2012 and February 2013

Лог проверки качества
foobar2000 1.4 / Dynamic Range Meter 1.1.1
log date: 2019-02-02 16:18:06

--------------------------------------------------------------------------------
Analyzed: Al Di Meola / All Your Life "A Tribute To The Beatles"
--------------------------------------------------------------------------------

DR         Peak         RMS     Duration Track
--------------------------------------------------------------------------------
DR10      -0.12 dB   -12.30 dB      3:52 01-In My Life
DR10      -0.11 dB   -12.27 dB      4:31 02-And I Love Her
DR10      -0.12 dB   -12.58 dB      4:07 03-Because
DR11      -0.12 dB   -12.87 dB      5:12 04-Michelle
DR9       -0.12 dB   -10.54 dB      2:53 05-I Will
DR8       -0.12 dB   -10.12 dB      2:51 06-Eleanor Rigby
DR11      -0.39 dB   -12.56 dB      5:42 07-Penny Lane
DR10      -0.12 dB   -10.96 dB      4:39 08-Blackbird
DR11      -0.12 dB   -12.21 dB      4:05 09-I Am the Walrus
DR10      -0.12 dB   -11.76 dB      3:01 10-Day in the Life
DR8       -0.12 dB   -10.04 dB      3:10 11-Being for the Benefit of Mr. Kite
DR9       -0.12 dB   -10.91 dB      4:16 12-With a Little Help from My Friends
DR10      -0.13 dB   -11.50 dB      2:59 13-If I Fell
DR10      -0.12 dB   -12.52 dB      3:22 14-She's Leaving Home
--------------------------------------------------------------------------------

Number of tracks:  14
Official DR value: DR10
Samplerate:        96000 Hz
Channels:          2
Bits per sample:   24
Bitrate:           2677 kbps
Codec:             FLAC
================================================================================
Скачивание доступно после регистрации!!
Приватный:
Нет (DHT включён)
Размер:
1.05 Гб (1,130,461,352 байт) » файлов: 16
Участники:
0 раздают, 0 качают (0 участников всего)
Внешние участники:
--- [ Обновить ]
15:48
55
Нет комментариев. Ваш будет первым!