Поиск

2019 The Electrik Rendezvous – Warrior {Iroko - Songsurfer} [24-44,1]

2019 The Electrik Rendezvous – Warrior {Iroko - Songsurfer} [24-44,1]
Треклист:

1. Chasin' The Voodoo
2. Crosstown Traffic
3. Everybody?s Everything
4. Not The Trick
5. I?m A Man
6. Teen Town
7. Sorceress
8. Dinner Music Of The Gods
9. Race With Devil On Spanish Highway

Лог проверки качества
foobar2000 1.3.16 / Dynamic Range Meter 1.1.1
log date: 2019-01-28 01:00:07

--------------------------------------------------------------------------------
Analyzed: The Electrik Rendezvous / Warrior
--------------------------------------------------------------------------------

DR         Peak         RMS     Duration Track
--------------------------------------------------------------------------------
DR6       -1.00 dB    -7.74 dB      4:20 01-Chasin' The Voodoo
DR6       -1.00 dB    -8.43 dB      3:23 02-Crosstown Traffic (feat. Tyler Cates)
DR6       -1.00 dB    -8.59 dB      4:00 03-EverybodyКјs Everything
DR8       -1.00 dB   -10.02 dB      4:25 04-Not The Trick (feat. Evan Garr)
DR6       -1.00 dB    -8.24 dB      3:29 05-IКјm A Man (feat. Tyler Cates)
DR7       -1.00 dB    -9.99 dB      5:30 06-Teen Town
DR7       -1.00 dB   -10.54 dB      3:48 07-Sorceress
DR6       -1.00 dB    -8.38 dB      6:20 08-Dinner Music of the Gods
DR6       -1.00 dB    -7.89 dB      7:05 09-Race with Devil on Spanish Highway
--------------------------------------------------------------------------------

Number of tracks:  9
Official DR value: DR6

Samplerate:        44100 Hz
Channels:          2
Bits per sample:   24
Bitrate:           1620 kbps
Codec:             FLAC
================================================================================
Скачивание доступно после регистрации!!
Приватный:
Да (DHT отключён)
Размер:
503.08 Мб (527,517,442 байт) » файлов: 11
Участники:
4 раздают, 0 качают (4 участников всего)
Внешние участники:
7 раздают, 2 качают (9 участников всего) [ Обновить ]
Скорость:
0/c 74.65 Кб/c
14:43
124
Нет комментариев. Ваш будет первым!