Поиск

2019 Orchestre National de Jazz - The Mystic Mind {ONJ Production} [24-96]

2019 Orchestre National de Jazz - The Mystic Mind {ONJ Production} [24-96]
Стили:
Дата издания диска:
11 октября 2019
Носитель:
WEB
Формат:
PCM
Тип рипа:
tracks
Контейнер:
FLAC (*.flac)
Количество каналов:
2.0
Разрядность/ЧД:
24/96
Битрейт аудио:
lossless
Время звучания:
00:54:26
Наличие сканов:
буклет pdf
Страна-производитель диска (релиза):
Canada
Релизёр (источник):
M0p94ok

Треклист:

1. Forethought  04:44
2. Emotional Interference  07:49
3. Deja-vu  01:13
4. Flow  09:38
5. Daydream  06:00
6. The Fascination Maze  08:03
7. Altered Recollection  03:18
8. Mindfulness  06:47
9. Phonological Loop  06:49

Лог проверки качества
foobar2000 1.6.2 / Dynamic Range Meter 1.1.1
log date: 2021-07-12 17:11:56

--------------------------------------------------------------------------------
Analyzed: Orchestre National de Jazz / The Mystic Mind
--------------------------------------------------------------------------------

DR         Peak         RMS     Duration Track
--------------------------------------------------------------------------------
DR8       -1.07 dB   -12.18 dB      4:45 01-Forethought
DR8       -0.59 dB   -10.55 dB      7:49 02-Emotional Interference
DR9       -2.96 dB   -14.04 dB      1:14 03-Deja-vu
DR8       -0.75 dB   -11.14 dB      9:38 04-Flow
DR9       -1.02 dB   -13.34 dB      6:00 05-Daydream
DR8       -0.68 dB   -10.80 dB      8:04 06-The Fascination Maze
DR11      -1.33 dB   -15.83 dB      3:19 07-Altered Recollection
DR9       -0.28 dB   -12.69 dB      6:48 08-Mindfulness
DR8       -1.12 dB   -12.04 dB      6:50 09-Phonological Loop
--------------------------------------------------------------------------------

Number of tracks:  9
Official DR value: DR9

Samplerate:        96000 Hz
Channels:          2
Bits per sample:   24
Bitrate:           2991 kbps
Codec:             FLAC
================================================================================
По всем вопросам пишите личное сообщение пользователю M0p94ok.
16:18
246
Нет комментариев. Ваш будет первым!