Поиск

1983 Stu Goldberg with Palle Danielsson & Jon Christensen - Live (2017) {MPS} [24-88.2]

1983 Stu Goldberg with Palle Danielsson & Jon Christensen - Live (2017) {MPS} [24-88.2]
Стили:
Дата записи диска:
5 марта 1982
Место записи:
Landes-museum, Münster, Germany
Дата издания диска:
15 августа 1982
Дата переиздания диска:
11 августа 2017
Издатель (лейбл):
Битрейт аудио:
lossless
Доп. инфо:

В десятилетие между серединой 1970-х и 80-х годов американский пианист и композитор Стю Голдберг был главной силой на мировой джазовой сцене; пианист оркестра Махавишну Джона Маклафлина, он также работал с такими, как Уэйн Шортер и Фредди Хаббард, прежде чем переехать в Лос-Анджелес в 1985 году, чтобы продолжить отмеченную наградами карьеру композитора для фильмов. На этой записи Live 1982 года Голдберг объединяется с, возможно, величайшей европейской ритм-группой той эпохи: басистом Палле Даниэльссоном и барабанщиком Джоном Кристенсоном. Участники легендарного Европейского квартета Кейта Джарретта, эти двое также работали с такими великими джазовыми музыкантами, как датчанин Ян Гарбарек, Чарльз Лойд, и были ритм-секцией на высоко оцененных альбомах MPS Alto Summit и Watch What Happens Стива Куна. Голдберг основывает Байао на богатой северо-восточной бразильской музыкальной стилистике. Трио сливается с этой смесью местной, африканской и европейской музыки. «Новая любовь» Стью начинается с его прекрасного балладного вступления а капелла, а затем переходит в расслабленный фолковый ритм. Эта рапсодическая пьеса включает виртуозное басовое соло, минорную средневосточную интерлюдию и джазовый свинг. Morning Star сияет в импрессионистическом вступлении Голдберга, а затем переходит в удобный 3/4 ритм, яркое взаимодействие Палле, Джона и Стю и короткую бурную секцию. Les Cedres De Maxime представляет бравурное басовое соло Палле, в то время как Red Skies представляет три в их творческих лирических лучших проявлениях, поскольку они играют вперед и назад с мелодиями и ритмами. Впечатляющий альбом фортепианного трио!

• Формат записи | Источник записи: [TR24][OF]
• Наличие водяных знаков: Нет
• Год издания релиза: 1983 (2017)
• Продолжительность: 00:44:35
• Источник: internet
• WEB релиз: ссылка
• Контейнер: FLAC (*.flac)
• Тип рипа: tracks
• Разрядность: 24/88,2
• Формат: РСМ
• Количество каналов: 2.0
• Наличие сканов: front

Лог проверки качества
foobar2000 1.4.2 / Dynamic Range Meter 1.1.1
log date: 2021-03-24 10:23:20

--------------------------------------------------------------------------------
Analyzed: Jon Christensen / Live
--------------------------------------------------------------------------------

DR         Peak         RMS     Duration Track
--------------------------------------------------------------------------------
DR14      -0.94 dB   -19.35 dB      9:14 01-Baiao  (Live)
DR16      -0.88 dB   -21.64 dB     11:26 02-New Love  (Live)
DR14      -0.92 dB   -21.11 dB      9:09 03-Morning Star  (Live)
DR17      -1.38 dB   -24.51 dB      6:15 04-Les cedres de maxime  (Live)
DR15      -0.94 dB   -19.73 dB      8:32 05-Red Skies  (Live)
--------------------------------------------------------------------------------

Number of tracks:  5
Official DR value: DR15

Samplerate:        88200 Hz
Channels:          2
Bits per sample:   24
Bitrate:           2576 kbps
Codec:             FLAC
================================================================================
No seeders - write personal message to M0p94ok. Any questions - support@pro-jazz.com.
Нет сидеров - пишите в личку M0p94ok. Есть вопросы - support@pro-jazz.com
14:31
44
Нет комментариев. Ваш будет первым!