Поиск

2021 Maridalen - Maridalen {Jazzland} [24-44.1]

2021 Maridalen - Maridalen {Jazzland} [24-44.1]
Дата издания диска:
9 апреля 2021
Издатель (лейбл):
Битрейт аудио:
lossless
Доп. инфо:

Название Маридален происходит от живописной долины, которая находится к северу от центра Осло. Одноименный дебют трио был записан в деревянной церкви Maridalen, недалеко от старых каменных руин St Margaretakirken и берегов Maridalsvannet.

То, что изначально начиналось как возможность практиковаться вместе, постепенно превратилось в проект Маридален. Три участника нашли свой тон в теплой гармонии контрабаса, трубы и деревянных духовых инструментов, полностью без аккордовых инструментов. Кроме того, они также обнаружили общее пристрастие к шведскому джазу, минималистской музыке из фильмов и французскому импрессионизму. С тех пор трио разработало собственное музыкальное пространство, которое одновременно фиксирует различные моменты настроения и создает небольшие истории.

Музыка оригинальна и перемещается между разными жанрами благодаря интимному и акустическому звуковому ландшафту, мелодической и звучной направленности. Вместе они видят красоту в патинированном и неотшлифованном, где скрип дерева и звон старого металла становятся частью выражения. Поэтому вполне естественно, что их первый альбом был записан в старой деревянной церкви.

В альбоме десять композиций, в которых слушатель попадает в разное настроение; от меланхолии возможного дождливого дня до ночной тишины, внезапно нарушенной проезжающим вагоном метро. В некоторых местах трио включило новые звуковые элементы, например, в песню «Urverket», где звук был обработан с помощью старого магнитофона Tandberg 50-х годов. Настроение в каждой песне определяется мелодиями, которые рассказываются и обрабатываются посредством коллективной импровизации и исследования звука.

• Формат записи | Источник записи: [TR24][OF]
• Наличие водяных знаков: Нет
• Год издания релиза: 2021
• Продолжительность: 00:42:38
• Источник: internet
• WEB релиз: ссылка
• Контейнер: FLAC (*.flac)
• Тип рипа: tracks
• Разрядность: 24/44,1
• Формат: PCM
• Количество каналов: 2.0
• Наличие сканов: front

Лог проверки качества
foobar2000 1.4.2 / Dynamic Range Meter 1.1.1
log date: 2021-04-07 22:27:23

--------------------------------------------------------------------------------
Analyzed: Maridalen / Maridalen
--------------------------------------------------------------------------------

DR         Peak         RMS     Duration Track
--------------------------------------------------------------------------------
DR8       -0.98 dB   -12.95 dB      3:34 01-Koral
DR8       -0.98 dB   -11.21 dB      4:24 02-Maridalen
DR10      -0.98 dB   -13.79 dB      4:53 03-Blir det regn i dag tru
DR9       -0.98 dB   -11.62 dB      4:32 04-Inga
DR10      -0.98 dB   -14.68 dB      5:45 05-Svartoren
DR7       -0.98 dB   -10.89 dB      2:55 06-Midt pГҐ natten et sted
DR8       -0.98 dB   -10.55 dB      3:44 07-Russisk landsbymelodi
DR11      -0.98 dB   -13.80 dB      4:20 08-Vals fra BjГёlsen
DR11      -0.98 dB   -14.25 dB      6:07 09-PГҐ gjensyn
DR8       -0.98 dB   -11.62 dB      2:23 10-Urverket
--------------------------------------------------------------------------------

Number of tracks:  10
Official DR value: DR9

Samplerate:        44100 Hz
Channels:          2
Bits per sample:   24
Bitrate:           1402 kbps
Codec:             FLAC
================================================================================
No seeders - write personal message to M0p94ok. Any questions - support@pro-jazz.com.
Нет сидеров - пишите в личку M0p94ok. Есть вопросы - support@pro-jazz.com
13:50
48
Нет комментариев. Ваш будет первым!