Поиск

2019 Nature Work - Nature Work {Sunnyside} [24-96]

2019 Nature Work - Nature Work {Sunnyside} [24-96]
Дата записи диска:
8 января 2018
Место записи:
Electrical Audio, Chicago, Illinois, USA
Дата издания диска:
21 июня 2019
Издатель (лейбл):
Номер по каталогу:
SSC 1554
Носитель:
WEB
Формат:
PCM
Тип рипа:
tracks
Контейнер:
FLAC (*.flac)
Количество каналов:
2.0
Разрядность/ЧД:
24/96
Битрейт аудио:
lossless
Время звучания:
00:59:19
Наличие сканов:
буклет pdf
Страна-производитель диска (релиза):
USA
Релизёр (источник):
M0p94ok
Лог проверки качества
foobar2000 1.6.2 / Dynamic Range Meter 1.1.1
log date: 2021-07-12 13:28:10

--------------------------------------------------------------------------------
Analyzed: Nature Work / Nature Work
--------------------------------------------------------------------------------

DR         Peak         RMS     Duration Track
--------------------------------------------------------------------------------
DR10      -0.79 dB   -13.00 dB      5:11 01-The Shiver
DR12      -0.69 dB   -15.13 dB      6:15 02-Hem The Jewels
DR12      -0.92 dB   -15.10 dB      7:11 03-Porch Time
DR10      -0.95 dB   -13.99 dB      5:35 04-Zenith
DR12      -1.08 dB   -17.67 dB      6:20 05-Opter Fopter
DR11      -0.88 dB   -15.21 dB      7:01 06-Cryptic Ripple
DR11      -0.79 dB   -12.96 dB      7:38 07-Tah Dazzle
DR12      -0.99 dB   -15.89 dB      6:04 08-South Hempstead
DR11      -0.93 dB   -15.57 dB      8:03 09-Rise
--------------------------------------------------------------------------------

Number of tracks:  9
Official DR value: DR11

Samplerate:        96000 Hz
Channels:          2
Bits per sample:   24
Bitrate:           2678 kbps
Codec:             FLAC
================================================================================
No seeders - write personal message to M0p94ok. Any questions - support@pro-jazz.com.
Нет сидеров - пишите в личку M0p94ok. Есть вопросы - support@pro-jazz.com
13:34
55
Нет комментариев. Ваш будет первым!