Поиск

2021 Alvin Dyers Trio - Jazz Lounge {Sonoton Music} [24-48]

2021 Alvin Dyers Trio - Jazz Lounge {Sonoton Music} [24-48]
Стили:
Битрейт аудио:
lossless
Доп. инфо:

• Формат записи | Источник записи: [TR24][OF]
• Наличие водяных знаков: Нет
• Год издания релиза: 2021
• Лейбл: Sonoton Music
• Продолжительность: 00:44:20
• Источник: internet
• WEB релиз: ссылка
• Контейнер: FLAC (*.flac)
• Тип рипа: tracks
• Разрядность: 24/48
• Формат: PCM
• Количество каналов: 2.0
• Наличие сканов: front

Лог проверки качества
foobar2000 1.4.2 / Dynamic Range Meter 1.1.1
log date: 2021-04-07 22:02:54

--------------------------------------------------------------------------------
Analyzed: Alvin Dyers Trio / Jazz Lounge
--------------------------------------------------------------------------------

DR         Peak         RMS     Duration Track
--------------------------------------------------------------------------------
DR8       -0.84 dB   -10.44 dB      2:32 01-Swinging at the Poolside
DR8       -1.07 dB   -10.41 dB      3:34 02-Nothing I Heard
DR8       -0.77 dB   -10.28 dB      3:07 03-Dyersteps
DR8       -0.91 dB    -9.84 dB      2:54 04-Swing Fit
DR8       -0.70 dB   -10.23 dB      3:22 05-It Is What It Is
DR8       -0.91 dB    -9.94 dB      2:31 06-Jazz Lounge
DR7       -1.18 dB    -9.24 dB      2:52 07-Madiba
DR8       -0.98 dB   -10.48 dB      3:00 08-Rose Garden
DR8       -1.32 dB   -10.39 dB      1:46 09-Score
DR8       -0.88 dB   -11.09 dB      3:25 10-Background Blues
DR8       -1.13 dB    -9.81 dB      2:08 11-Heart to Heart
DR8       -0.91 dB   -10.86 dB      3:39 12-Almost Once
DR8       -0.91 dB   -10.46 dB      4:30 13-Secret Beauty
DR8       -1.16 dB   -10.09 dB      3:56 14-Noekies
DR8       -1.35 dB   -10.57 dB      1:04 15-Walking Bass Line 1
--------------------------------------------------------------------------------

Number of tracks:  15
Official DR value: DR8

Samplerate:        48000 Hz
Channels:          2
Bits per sample:   24
Bitrate:           1656 kbps
Codec:             FLAC
================================================================================
No seeders - write personal message to M0p94ok. Any questions - support@pro-jazz.com.
Нет сидеров - пишите в личку M0p94ok. Есть вопросы - support@pro-jazz.com
12:44
51
Нет комментариев. Ваш будет первым!