Поиск

2020 Kitty Kallen - Here, Kitty, Kitty...This Is Kitty Kallen! {RevOla} [24-44.1]

2020 Kitty Kallen - Here, Kitty, Kitty...This Is Kitty Kallen! {RevOla} [24-44.1]
Стили:
Дата издания диска:
26 июня 202
Издатель (лейбл):
Битрейт аудио:
lossless
Доп. инфо:

Формат записи/Источник записи: [TR24][OF]
Издание: Remastered
Год издания/переиздания диска: 2020
Продолжительность: 01:12:53
Наличие сканов в содержимом раздачи: Нет

Контейнер: FLAC (*.flac)
Тип рипа: tracks
Разрядность: 24/44,1
Количество каналов: 2.0

Источник (релизер): Qobuz

Лог проверки качества
foobar2000 1.6.2 / Dynamic Range Meter 1.1.1
log date: 2021-01-02 10:45:08

--------------------------------------------------------------------------------
Analyzed: Kitty Kallen / Here, Kitty, Kitty...This Is Kitty Kallen!
--------------------------------------------------------------------------------

DR         Peak         RMS     Duration Track
--------------------------------------------------------------------------------
DR11      -5.28 dB   -19.47 dB      2:57 01-But Beautiful! (Remastered)
DR10      -5.73 dB   -19.66 dB      2:26 02-Star Eyes (Remastered)
DR11      -6.48 dB   -20.80 dB      3:27 03-It's Been A Long, Long Time (Remastered)
DR12      -3.62 dB   -20.36 dB      3:02 04-Little Things Mean A Lot (Remastered)
DR9       -6.40 dB   -19.47 dB      3:00 05-It Could Happen To You (Remastered)
DR12      -2.86 dB   -17.79 dB      3:16 06-I'm Beginning To See the Light (Remastered)
DR10      -4.73 dB   -18.71 dB      2:54 07-If Someone Had Told Me (Remastered)
DR11      -2.86 dB   -17.53 dB      2:59 08-Let Me Love You (Remastered)
DR12      -2.28 dB   -17.71 dB      3:04 09-When They Ask About You (Remastered)
DR11      -5.32 dB   -20.25 dB      2:55 10-In The Chapel In The Moonlight (Remastered)
DR11      -6.60 dB   -21.95 dB      2:42 11-Just Between Friends (Remastered)
DR11      -5.56 dB   -19.70 dB      3:09 12-I'm Old Fashioned (Remastered)
DR10      -3.42 dB   -17.17 dB      2:45 13-I'll Walk Alone (Remastered)
DR10      -5.14 dB   -19.18 dB      2:46 14-Misty (Remastered)
DR12      -2.77 dB   -19.33 dB      4:04 15-It Amazes Me (Remastered)
DR10      -3.73 dB   -19.09 dB      3:22 16-My Coloring Book (Remastered)
DR11      -3.61 dB   -16.74 dB      3:07 17-They're Either Too Young Or Too Old (Remastered)
DR12      -0.52 dB   -16.72 dB      3:24 18-I'll Buy That Dream (Remastered)
DR10      -5.84 dB   -20.09 dB      2:59 19-Quiet Nights Of Quiet Stars (Corcovado) (Remastered)
DR11      -4.36 dB   -20.17 dB      2:41 20-I'd Never Forgive Myself (Remastered)
DR11      -3.83 dB   -19.77 dB      3:02 21-Besame Mucho (Remastered)
DR11      -6.67 dB   -20.68 dB      3:35 22-How Are Things In Glocca Morra? (Remastered)
DR11      -6.95 dB   -22.28 dB      2:40 23-Because You're Mine (Remastered)
DR10      -5.63 dB   -18.47 dB      2:46 24-If I Give My Heart To You (Remastered)
--------------------------------------------------------------------------------

Number of tracks:  24
Official DR value: DR11

Samplerate:        44100 Hz
Channels:          2
Bits per sample:   24
Bitrate:           1497 kbps
Codec:             FLAC
================================================================================
No seeders - write personal message to M0p94ok. Any questions - support@pro-jazz.com.
Нет сидеров - пишите в личку M0p94ok. Есть вопросы - support@pro-jazz.com
17:46
43
Нет комментариев. Ваш будет первым!