Поиск

2019 MHL Bigband - Changing Times {Chaos} [24-44.1]

2019 MHL Bigband - Changing Times {Chaos} [24-44.1]
Стили:
Дата издания диска:
19 апреля 2019
Носитель:
WEB
Формат:
PCM
Тип рипа:
tracks+.cue
Контейнер:
APE (*.ape)
Количество каналов:
2.0
Разрядность/ЧД:
24/44,1
Битрейт аудио:
lossless
Время звучания:
01:13:13
Наличие сканов:
web
Страна-производитель диска (релиза):
Germany
Релизёр (источник):
M0p94ok
Лог проверки качества
foobar2000 1.6.2 / Dynamic Range Meter 1.1.1
log date: 2021-01-30 02:04:00

--------------------------------------------------------------------------------
Analyzed: MHL Bigband / Changing Times
--------------------------------------------------------------------------------

DR         Peak         RMS     Duration Track
--------------------------------------------------------------------------------
DR8       -0.64 dB   -10.61 dB      6:23 01-Outrageous
DR9       -0.60 dB   -11.31 dB      6:09 02-Push
DR9       -0.60 dB   -11.85 dB      9:46 03-Magic Moments
DR9       -0.44 dB   -11.10 dB      6:22 04-Ngotek
DR7       -0.61 dB    -9.56 dB      4:52 05-The Second Dark Side
DR11      -0.66 dB   -14.39 dB      9:28 06-24/7
DR10      -0.63 dB   -11.58 dB      8:17 07-Schwarmdefekte
DR9       -0.37 dB   -12.72 dB     21:56 08-Till Your Well
--------------------------------------------------------------------------------

Number of tracks:  8
Official DR value: DR9

Samplerate:        44100 Hz
Channels:          2
Bits per sample:   24
Bitrate:           1618 kbps
Codec:             FLAC
================================================================================
No seeders - write personal message to M0p94ok. Any questions - support@pro-jazz.com.
Нет сидеров - пишите в личку M0p94ok. Есть вопросы - support@pro-jazz.com
03:07
131
Нет комментариев. Ваш будет первым!