Вы используете незарегистрированную версию компонента "Вкладки"!

Поиск

2020 Luba Mason - Triangle {Blue Canoe} [24-44.1]

2020 Luba Mason - Triangle {Blue Canoe} [24-44.1]
Стили:
Дата издания диска:
23 октября 2020
Битрейт аудио:
lossless
Доп. инфо:

Формат записи/Источник записи: [TR24][OF]
Год издания/переиздания диска: 2020
Издатель (лейбл): Blue Canoe Records
Продолжительность: 00:45:31
Наличие сканов в содержимом раздачи: Нет

Контейнер: FLAC (*.flac)
Тип рипа: tracks
Разрядность: 24/44,1
Количество каналов: 2.0

Источник (релизер): HIGHRESAUDIO

Лог проверки качества
foobar2000 1.3.16 / Dynamic Range Meter 1.1.1
log date: 2020-10-24 03:48:20

--------------------------------------------------------------------------------
Analyzed: Luba Mason / Triangle
--------------------------------------------------------------------------------

DR         Peak         RMS     Duration Track
--------------------------------------------------------------------------------
DR11      -0.31 dB   -13.74 dB      5:03 01-Bach, Stevie Wonder and Janelle Monae
DR11      -0.54 dB   -15.22 dB      3:58 02-Haled's Song About Love
DR13      -0.22 dB   -15.70 dB      5:09 03-Ticket to Ride
DR12      -0.52 dB   -15.06 dB      4:27 04-Waters of March
DR12      -1.01 dB   -17.38 dB      3:44 05-Ceresne
DR13      -0.51 dB   -16.10 dB      3:50 06-In Walked Bud
DR12       0.00 dB   -16.54 dB      4:02 07-Inolvidable
DR13       0.00 dB   -15.80 dB      5:00 08-Toxicity
DR13      -1.48 dB   -17.92 dB      5:23 09-Say It
DR12       0.00 dB   -14.69 dB      5:00 10-50 Ways to Leave Your Lover
--------------------------------------------------------------------------------

Number of tracks:  10
Official DR value: DR12

Samplerate:        44100 Hz
Channels:          2
Bits per sample:   24
Bitrate:           1513 kbps
Codec:             FLAC
================================================================================
Any questions - support@pro-jazz.com. Есть вопросы - support@pro-jazz.com
11:32
168
Нет комментариев. Ваш будет первым!