Поиск

1975 Johnny Hammond - Gears (2020) {Craft} [24-192]

1975 Johnny Hammond - Gears (2020) {Craft} [24-192]
Стили:
Дата записи диска:
1 июля 1975
Место записи:
Fantasy Studios, Berkeley, California, USA
Битрейт аудио:
lossless

Треклист:

01 - Tell Me What To Do 05:19
02 - Los Conquistadores Chocolates 06:08
03 - Lost On 23rd Street 05:55
04 - Fantasy 06:06
05 - Shifting Gears 05:16
06 - Can't We Smile? 04:35

Доп. инфо:

Формат записи/Источник записи: [TR24][OF]
Издание: Remastered
Год издания/переиздания диска: 1975/2020
Издатель (лейбл): Craft Recordings
Продолжительность: 00:33:19
Наличие сканов в содержимом раздачи: Нет
Контейнер: FLAC (*.flac)
Тип рипа: tracks
Разрядность: 24/192
Количество каналов: 2.0

Источник (релизер): HIGHRESAUDIO

Лог проверки качества
foobar2000 1.3.7 / Dynamic Range Meter 1.1.1
log date: 2020-10-23 08:26:59

--------------------------------------------------------------------------------
Analyzed: Johnny Hammond / Gears
--------------------------------------------------------------------------------

DR         Peak         RMS     Duration Track
--------------------------------------------------------------------------------
DR9       -0.50 dB   -11.81 dB      5:18 01-Tell Me What To Do
DR9       -0.50 dB   -11.67 dB      6:09 02-Los Conquistadores Chocolates
DR9       -0.50 dB   -11.59 dB      5:52 03-Lost On 23rd Street
DR9       -0.50 dB   -11.38 dB      6:03 04-Fantasy
DR10      -0.50 dB   -12.14 dB      5:11 05-Shifting Gears
DR9       -0.50 dB   -11.00 dB      4:35 06-Can't We Smile?
--------------------------------------------------------------------------------

Number of tracks:  6
Official DR value: DR9

Samplerate:        192000 Hz
Channels:          2
Bits per sample:   24
Bitrate:           5381 kbps
Codec:             FLAC
================================================================================
Приватный:
Нет (DHT включён)
Размер:
1.26 Гб (1,349,588,306 байт) » файлов: 11
Участники:
0 раздают, 0 качают (0 участников всего)
Внешние участники:
3 раздают, 1 качают (4 участников всего) [ Обновить ]
No seeders - write personal message to M0p94ok. Нет сидеров - пишите в личку M0p94ok.
12:50
136
Нет комментариев. Ваш будет первым!