Вы используете незарегистрированную версию компонента "Вкладки"!

Поиск

1960 Michel Legrand - Paris Jazz Piano (2019) {RevOla} [24-44.1]

1960 Michel Legrand - Paris Jazz Piano (2019) {RevOla} [24-44.1]
Дата записи диска:
20 октября, 21 октября, 23 октября и 9 ноября 1959
Место записи:
Blanqui Studio, Paris
Издатель (лейбл):
Носитель:
WEB
Формат:
PCM
Тип рипа:
tracks+.cue
Контейнер:
APE (*.ape)
Количество каналов:
2.0
Разрядность/ЧД:
24/44,1
Битрейт аудио:
lossless
Время звучания:
00:31:11
Наличие сканов:
web
Страна-производитель диска (релиза):
France
Релизёр (источник):
M0p94ok
Лог проверки качества
foobar2000 1.6.2 / Dynamic Range Meter 1.1.1
log date: 2021-01-30 12:16:46

--------------------------------------------------------------------------------
Analyzed: Michel Legrand / Paris Jazz Piano
--------------------------------------------------------------------------------

DR         Peak         RMS     Duration Track
--------------------------------------------------------------------------------
DR13      -4.67 dB   -20.41 dB      2:55 01-Sous Les Ponts de Paris
DR12      -5.55 dB   -20.12 dB      3:33 02-Paris in the Spring
DR12      -6.25 dB   -23.24 dB      5:14 03-April in Paris
DR11      -6.91 dB   -20.78 dB      1:52 04-Sous le Ciel de Paris
DR12      -6.33 dB   -21.32 dB      2:04 05-Paris Canaille
DR14      -3.88 dB   -20.29 dB      4:24 06-Paris, Je t'aime...d'Amour
DR12      -6.74 dB   -22.49 dB      2:53 07-I Love Paris
DR12      -5.71 dB   -21.53 dB      2:26 08-The Last Time I Saw Paris
DR12      -5.82 dB   -20.62 dB      2:42 09-Moulin Rouge
DR12      -6.98 dB   -22.13 dB      3:09 10-La Vie En Rose
--------------------------------------------------------------------------------

Number of tracks:  10
Official DR value: DR12

Samplerate:        44100 Hz
Channels:          2
Bits per sample:   24
Bitrate:           1297 kbps
Codec:             FLAC
================================================================================
Any questions - support@pro-jazz.com. Есть вопросы - support@pro-jazz.com
13:40
191
Нет комментариев. Ваш будет первым!