Вы используете незарегистрированную версию компонента "Вкладки"!

Поиск

2020 Lewis Wright, Matt Brewer, Marcus Gilmore - The Colour of Intention {Signum} [24-96]

2020 Lewis Wright, Matt Brewer, Marcus Gilmore - The Colour of Intention {Signum} [24-96]
Битрейт аудио:
lossless
Доп. инфо:

Формат записи/Источник записи: [TR24][OF]
Наличие водяных знаков: Нет
Год издания/переиздания диска: 2020
Издатель (лейбл): Signum Records
Продолжительность: 00:39:05
Наличие сканов в содержимом раздачи: Только обложка альбома

Контейнер: FLAC (*.flac)
Тип рипа: tracks
Разрядность: 24/96
Формат: PCM
Количество каналов: 2.0

Источник (релизер): qobuz

Лог проверки качества
foobar2000 1.6.2 / Dynamic Range Meter 1.1.1
log date: 2020-12-08 22:57:20

--------------------------------------------------------------------------------
Analyzed: Lewis Wright, Matt Brewer, Marcus Gilmore / The Colour of Intention
--------------------------------------------------------------------------------

DR         Peak         RMS     Duration Track
--------------------------------------------------------------------------------
DR14      -1.45 dB   -19.09 dB      7:07 01-Mettle
DR14      -2.98 dB   -23.30 dB      7:40 02-Recover
DR13      -2.72 dB   -19.25 dB      7:35 03-Resolve
DR15      -6.25 dB   -25.83 dB      6:38 04-Raise for Z
DR13      -3.57 dB   -20.96 dB      4:49 05-Les Lilas
DR15      -1.19 dB   -20.67 dB      5:16 06-Brilliant Corners
--------------------------------------------------------------------------------

Number of tracks:  6
Official DR value: DR14

Samplerate:        96000 Hz
Channels:          2
Bits per sample:   24
Bitrate:           2739 kbps
Codec:             FLAC
================================================================================
Any questions - support@pro-jazz.com. Есть вопросы - support@pro-jazz.com
14:01
151
Нет комментариев. Ваш будет первым!