Поиск

1978 Sadik Hakim - A Bit of Monk (2020) {Progressive} [24-96]

1978 Sadik Hakim - A Bit of Monk (2020) {Progressive} [24-96]
Стили:
Дата записи диска:
27 октября - 28 октября 1978
Место записи:
Downtown Sound Studio, New York City, NY, USA
Дата переиздания диска:
12 ноября 2020
Битрейт аудио:
lossless

Треклист:

01. Up at Harvey's (Hakim) - 5:44
02. Pannonica (Monk) - 6:19
03. Off Minor (Monk) - 6:08
04. Ode to Scorpio (Hakim) - 4:55
05. Blue Monk (Monk) - 4:44
06. Ugly Beauty (Monk) - 4:31
07. Luscious Thing (Hakim) - 6:29
08. Pandora's Box (Hakim) - 4:39
09. Up at Harvey's (alternate take) (Hakim) - 5:11
10. Off Minor (alternate take) (Monk) - 7:41
11. Ode to Scorpio (alternate take) (Hakim) - 9:54
12. Pandora's Box (alternate take) (Hakim) - 6:01

Лог проверки качества
foobar2000 1.6.2 / Dynamic Range Meter 1.1.1
log date: 2020-12-08 23:15:13

--------------------------------------------------------------------------------
Analyzed: Sadik Hakim / A Bit of Monk
--------------------------------------------------------------------------------

DR         Peak         RMS     Duration Track
--------------------------------------------------------------------------------
DR14      -0.23 dB   -16.62 dB      5:44 01-Up at Harvey's
DR14      -2.09 dB   -20.27 dB      6:19 02-Pannonica
DR14      -0.23 dB   -16.78 dB      6:08 03-Off Minor
DR15      -0.23 dB   -17.86 dB      4:55 04-Ode to Scorpio
DR14      -0.23 dB   -17.38 dB      4:44 05-Blue Monk
DR15      -0.24 dB   -18.60 dB      4:31 06-Ugly Beauty
DR14      -0.23 dB   -16.38 dB      6:29 07-Luscious Thing
DR14      -0.23 dB   -16.52 dB      4:39 08-Pandora's Box
DR15      -0.23 dB   -18.85 dB      5:11 09-Up at Harvey's (alternate take)
DR14      -0.23 dB   -17.55 dB      7:41 10-Off Minor (alternate take)
DR15      -0.23 dB   -18.27 dB      9:54 11-Ode to Scorpio (alternate take)
DR14      -0.23 dB   -17.00 dB      6:01 12-Pandora's Box (alternate take)
--------------------------------------------------------------------------------

Number of tracks:  12
Official DR value: DR14

Samplerate:        96000 Hz
Channels:          2
Bits per sample:   24
Bitrate:           3036 kbps
Codec:             FLAC
================================================================================
Приватный:
Нет (DHT включён)
Размер:
1.51 Гб (1,620,078,112 байт) » файлов: 16
Участники:
0 раздают, 0 качают (0 участников всего)
Внешние участники:
5 раздают, 1 качают (6 участников всего) [ Обновить ]
No seeders - write personal message to M0p94ok. Нет сидеров - пишите в личку M0p94ok.
20:50
169
Нет комментариев. Ваш будет первым!