Поиск

2019 Marina and the Kats - Swingsalabim {O-tone Music OT026-2} [24-44.1]

2019 Marina and the Kats - Swingsalabim {O-tone Music OT026-2} [24-44.1]
Стили:
Дата издания диска:
26 апреля 2019
Номер по каталогу:
OTO26-2
Носитель:
WEB
Формат:
PCM
Тип рипа:
tracks+.cue
Контейнер:
APE (*.ape)
Количество каналов:
2.0
Разрядность/ЧД:
24/44,1
Битрейт аудио:
lossless
Время звучания:
00:40:39
Наличие сканов:
web
Наличие водяных знаков:
нет
Страна-производитель диска (релиза):
Austria
Релизёр (источник):
M0p94ok

Треклист:

01    The Way You're Kissing Me    2:22
02    Stick To What You Got    3:11
03    Say What?    3:16
04    I Should Have Known Better    4:39
05    Get On With It    2:58
06    Wherever You May Go    3:42
07    1000 Miles Ahead    4:04
08    No, No, No    3:16
09    Avalon    2:41
10    Maybe I'm In Love    2:56
11    You're Fired    3:23
12    Fade To Dust    4:12

Доп. инфо:

Marina & The Kats - очаровательная свинг-группа из города Граца (Graz) - Австрия.
Marina & The Kats это: певица и автор песен - Марина Цеттль из Граца, гитарист - Томас Мауэрхофер, уроженец Вайца, и басист - Питер Шенбауэр.
Музыка хорошего настроения с шармом, юмором и упрямством, которая прекрасно реализована в музыкальном плане. Голос Марины Цеттль всегда придает свежий и в то же время дерзкий, гламурный шик всему коллективу.
Вопрос: - Почему тебя зовут Marina & The Kats?
Марина: - Я думаю, что характер кошки идеально описывает этот вид музыки.

Лог проверки качества
foobar2000 1.6.2 / Dynamic Range Meter 1.1.1
log date: 2021-01-30 20:50:57

--------------------------------------------------------------------------------
Analyzed: Marina and the Kats / Swingsalabim
--------------------------------------------------------------------------------

DR         Peak         RMS     Duration Track
--------------------------------------------------------------------------------
DR6       -0.62 dB    -7.92 dB      2:22 01-The Way You're Kissing Me
DR7       -0.62 dB    -8.63 dB      3:11 02-Stick to What You Got
DR6       -0.62 dB    -7.88 dB      3:16 03-Say What
DR7       -0.62 dB    -9.73 dB      4:40 04-I Should Have Known Better
DR7       -0.62 dB    -9.56 dB      4:04 05-1000 Miles Ahead
DR8       -0.62 dB    -9.67 dB      2:59 06-Get on with It
DR7       -0.62 dB    -9.09 dB      3:16 07-No, No, No
DR7       -0.62 dB    -9.57 dB      2:56 08-Maybe I'm in Love
DR6       -0.62 dB    -8.53 dB      2:42 09-Avalon
DR9       -0.63 dB   -12.19 dB      3:42 10-Wherever You May Go
DR7       -0.62 dB    -8.37 dB      3:23 11-You're Fired
DR9       -0.64 dB   -12.91 dB      4:13 12-Fade to Dust
--------------------------------------------------------------------------------

Number of tracks:  12
Official DR value: DR7

Samplerate:        44100 Hz
Channels:          2
Bits per sample:   24
Bitrate:           1556 kbps
Codec:             FLAC
================================================================================
Приватный:
Нет (DHT включён)
Размер:
473.93 Мб (496,951,231 байт) » файлов: 14
Участники:
0 раздают, 0 качают (0 участников всего)
Внешние участники:
--- [ Обновить ]
No seeders - write personal message to M0p94ok. Нет сидеров - пишите в личку M0p94ok.
22:06
148
Нет комментариев. Ваш будет первым!