Вы используете незарегистрированную версию компонента "Вкладки"!

Поиск

1978 Sadik Hakim - Memories (2020) {Progressive} [24-96]

1978 Sadik Hakim - Memories (2020) {Progressive} [24-96]
Стили:
Дата записи диска:
31 января 1978
Дата переиздания диска:
12 ноября 2020
Битрейт аудио:
lossless
Доп. инфо:

Формат записи/Источник записи: [TR24][OF]
Наличие водяных знаков: Нет
Год издания/переиздания диска: 1978/2020
Издатель (лейбл): Progressive
Продолжительность: 00:50:31
Наличие сканов в содержимом раздачи: Только обложка альбома

Контейнер: FLAC (*.flac)
Тип рипа: tracks
Разрядность: 24/96
Формат: PCM
Количество каналов: 2.0

Источник (релизер): qobuz

Лог проверки качества
foobar2000 1.6.2 / Dynamic Range Meter 1.1.1
log date: 2020-12-08 23:32:18

--------------------------------------------------------------------------------
Analyzed: Sadik Hakim / Memories
--------------------------------------------------------------------------------

DR         Peak         RMS     Duration Track
--------------------------------------------------------------------------------
DR14      -0.23 dB   -17.58 dB      5:31 01-My Ship
DR14      -1.36 dB   -19.41 dB      6:08 02-Francyne
DR14      -0.22 dB   -17.29 dB      4:44 03-Liliane
DR13      -0.23 dB   -17.01 dB      2:18 04-Yuko
DR14      -2.00 dB   -19.66 dB      3:03 05-Judy
DR13      -0.29 dB   -16.69 dB      3:21 06-No Sue at All
DR12      -3.68 dB   -18.89 dB      2:29 07-Liane
DR13      -0.23 dB   -15.45 dB      3:15 08-Luscious Thing
DR12      -0.97 dB   -15.60 dB      2:23 09-Pandora's Box
DR14      -0.23 dB   -16.10 dB      2:33 10-Just One
DR15      -0.23 dB   -19.03 dB      3:01 11-Ruby My Dear
DR14      -0.23 dB   -16.41 dB      3:14 12-Now's the Time
DR15      -0.23 dB   -18.23 dB      4:32 13-Body and Soul
DR14      -0.23 dB   -17.51 dB      3:59 14-Dancing in the Dark
--------------------------------------------------------------------------------

Number of tracks:  14
Official DR value: DR14

Samplerate:        96000 Hz
Channels:          2
Bits per sample:   24
Bitrate:           2575 kbps
Codec:             FLAC
================================================================================
Any questions - support@pro-jazz.com. Есть вопросы - support@pro-jazz.com
22:17
196
Нет комментариев. Ваш будет первым!