Поиск

2021 Melbreeze - I Love Paris {Blue Canoe} [24-44.1]

2021 Melbreeze - I Love Paris {Blue Canoe} [24-44.1]
Стили:
Дата издания диска:
22 января 2021
Носитель:
CD
Формат:
PCM
Тип рипа:
tracks+.cue
Контейнер:
FLAC (*.flac)
Количество каналов:
2.0
Разрядность/ЧД:
24/44,1
Битрейт аудио:
lossless
Время звучания:
00:54:54
Наличие сканов:
web
Релизёр (источник):
M0p94ok
Лог проверки качества
foobar2000 1.6.2 / Dynamic Range Meter 1.1.1
log date: 2021-01-30 21:39:43

--------------------------------------------------------------------------------
Analyzed: Melbreeze / I Love Paris
--------------------------------------------------------------------------------

DR         Peak         RMS     Duration Track
--------------------------------------------------------------------------------
DR8       -1.00 dB   -11.23 dB      6:03 01-Autumn Leaves
DR8       -1.00 dB   -11.40 dB      5:50 02-I Fall in Love Too Easily
DR8       -1.00 dB   -10.88 dB      4:31 03-Dat Dere
DR8       -1.00 dB   -10.71 dB      5:47 04-Sentimental Journey
DR9       -1.00 dB   -11.34 dB      5:16 05-Don't Explain
DR9       -1.00 dB   -10.87 dB      3:54 06-I Love Paris
DR9       -1.00 dB   -11.35 dB      5:57 07-My Funny Valentine
DR8       -1.00 dB   -11.03 dB      6:41 08-Yesterdays
DR9       -1.00 dB   -11.23 dB      5:43 09-What Lola Wants
DR8       -1.00 dB   -11.48 dB      5:18 10-Killing Me Softly with His Song
--------------------------------------------------------------------------------

Number of tracks:  10
Official DR value: DR8

Samplerate:        44100 Hz
Channels:          2
Bits per sample:   16
Bitrate:           889 kbps
Codec:             FLAC
================================================================================
No seeders - write personal message to M0p94ok. Any questions - support@pro-jazz.com.
Нет сидеров - пишите в личку M0p94ok. Есть вопросы - support@pro-jazz.com
22:51
140
Нет комментариев. Ваш будет первым!