Поиск

1989 Ed Jones Quartet - The Homecoming (2020) {Acid Jazz UK} [24-48]

1989 Ed Jones Quartet - The Homecoming (2020) {Acid Jazz UK} [24-48]
Стили:
Дата записи диска:
1 апреля 1989
Место записи:
London, UK
Дата переиздания диска:
7 декабря 2020
Битрейт аудио:
lossless
Доп. инфо:

Формат записи/Источник записи: [TR24][OF]
Год издания/переиздания диска: 1989/2020
Издатель (лейбл): Acid Jazz UK
Продолжительность: 00:23:09
Наличие сканов в содержимом раздачи: Нет

Контейнер: FLAC (*.flac)
Тип рипа: tracks
Разрядность: 24/48
Количество каналов: 2.0

Источник (релизер): Qobuz

Лог проверки качества
foobar2000 1.4.3 / Dynamic Range Meter 1.1.1
log date: 2020-12-07 16:24:20

--------------------------------------------------------------------------------
Analyzed: Ed Jones Quartet / The Homecoming
--------------------------------------------------------------------------------

DR         Peak         RMS     Duration Track
--------------------------------------------------------------------------------
DR11      -0.37 dB   -13.23 dB      5:32 01-The Homecoming
DR12      -0.37 dB   -13.99 dB      7:47 02-No White Lines
DR11      -0.29 dB   -14.07 dB      4:53 03-Two Heads
DR12      -0.40 dB   -13.86 dB      5:00 04-Samba Minus One
--------------------------------------------------------------------------------

Number of tracks:  4
Official DR value: DR12

Samplerate:        48000 Hz
Channels:          2
Bits per sample:   24
Bitrate:           1666 kbps
Codec:             FLAC
================================================================================
No seeders - write personal message to M0p94ok. Any questions - support@pro-jazz.com.
Нет сидеров - пишите в личку M0p94ok. Есть вопросы - support@pro-jazz.com
23:12
156
Нет комментариев. Ваш будет первым!