Поиск

2016 Mike Walker - The Space Between {Edition EDN1082} [24-44.1]

2016 Mike Walker - The Space Between {Edition EDN1082} [24-44.1]
Стили:
Место записи:
The Wood Room, Real World Studios
Дата издания диска:
25 ноября 2016
Носитель:
WEB
Формат:
PCM
Тип рипа:
tracks+.cue
Контейнер:
APE (*.ape)
Количество каналов:
2.0
Разрядность/ЧД:
24/44,1
Битрейт аудио:
lossless
Время звучания:
00:48:16
Наличие сканов:
web
Наличие водяных знаков:
нет
Релизёр (источник):
M0p94ok

Треклист:

1. And Finally 05:26
2. Alfie 05:28
3. Moment Us 06:03
4. Yewfield 05:27
5. Debussy 02:08
6. The Space Between 06:08
7. As The Trees Waltz 05:00
8. My Ideal 05:25
9. Sky Dancer 07:11

Лог проверки качества
foobar2000 1.3.16 / Dynamic Range Meter 1.1.1
log date: 2019-04-25 08:41:56

--------------------------------------------------------------------------------
Analyzed: Mike Walker / The Space Between
--------------------------------------------------------------------------------

DR         Peak         RMS     Duration Track
--------------------------------------------------------------------------------
DR10      -1.00 dB   -13.89 dB      5:27 01-And Finally
DR11      -1.00 dB   -15.29 dB      5:28 02-Alfie
DR10      -1.00 dB   -14.79 dB      6:03 03-Moment Us
DR10      -1.00 dB   -14.21 dB      5:27 04-Yewfield
DR13      -1.00 dB   -17.88 dB      2:09 05-String Quartet in G Minor, Excerpt from the 3rd Movement
DR10      -1.00 dB   -14.10 dB      6:08 06-The Space Between
DR11      -1.00 dB   -17.30 dB      5:00 07-As the Trees Waltz
DR12      -1.00 dB   -17.67 dB      5:25 08-My Ideal
DR9       -1.00 dB   -12.72 dB      7:11 09-Sky Dancer
--------------------------------------------------------------------------------

Number of tracks:  9
Official DR value: DR11

Samplerate:        44100 Hz
Channels:          2
Bits per sample:   24
Bitrate:           1505 kbps
Codec:             FLAC
================================================================================
Приватный:
Нет (DHT включён)
Размер:
498.01 Мб (522,206,497 байт) » файлов: 11
Участники:
0 раздают, 0 качают (0 участников всего)
Внешние участники:
--- [ Обновить ]
No seeders - write personal message to M0p94ok. Any questions - support@pro-jazz.com.
Нет сидеров - пишите в личку M0p94ok. Есть вопросы - support@pro-jazz.com
01:29
238
Нет комментариев. Ваш будет первым!