Поиск

1996 Adela Dalto - Exotica (2019) {Venus VHGD-342} [DSD64]

1996 Adela Dalto - Exotica (2019) {Venus VHGD-342} [DSD64]
Стили:
Издатель (лейбл):
Номер по каталогу:
VHGD-342
Битрейт аудио:
lossless

Треклист:

01. Dawning  01:10
02. Moon and Sand  06:10
03. And When the Clouds Fade Away  04:53
04. Dreams of Paradise  04:52
05. Summer Passion  04:19
06. Brazilian Summer  05:05
07. Chora Coracao  04:06
08. Bachianas Brasileiras No.5  04:32
09. Sol Do Meio Dia  01:52
10. Pobre De Mim  04:20
11. Coracao Vagabundo  03:24
12. Waiting for Him  04:07
13. Afro-Samba's Medley  06:55

Доп. инфо:

Формат записи/Источник записи: [SACD-R][OF]
Наличие водяных знаков: Нет
Год издания/переиздания диска: 1996/2019
Продолжительность: 00:55:50
Наличие сканов в содержимом раздачи: Да (сканы)

Контейнер: ISO (*.iso)
Тип рипа: image
Разрядность: 64(2,8 MHz/1 Bit)
Формат: DSD
Количество каналов: 2.0

Источник (релизер): jazzy pic

Лог проверки качества
foobar2000 1.6.2 / Замер динамического диапазона (DR) 1.1.1
Дата отчёта:  2020-12-06 21:14:10

--------------------------------------------------------------------------------
Анализ:   ADELA DALTO / EXOTICA
--------------------------------------------------------------------------------

DR         Пики         RMS           Продолжительность трека
--------------------------------------------------------------------------------
DR11      -5.12 дБ   -20.43 дБ      1:10 01-Dawning
DR12      -3.25 дБ   -16.94 дБ      6:10 02-Moon And Sand
DR12      -3.16 дБ   -16.80 дБ      4:53 03-And When The Clouds Fade Away
DR11      -2.90 дБ   -15.98 дБ      4:53 04-Dreams Of Paradise
DR12      -3.08 дБ   -17.14 дБ      4:20 05-Summer Passion
DR11      -3.04 дБ   -16.27 дБ      5:05 06-Brazilian Summer
DR11      -3.51 дБ   -17.07 дБ      4:06 07-Chora Coracao
DR11      -2.94 дБ   -16.62 дБ      4:32 08-Bachianas Brasileiras No.5
DR12      -3.52 дБ   -17.22 дБ      1:52 09-Sol Do Meio Dia
DR12      -2.99 дБ   -17.16 дБ      4:20 10-Pobre De Mim
DR12      -3.09 дБ   -16.81 дБ      3:24 11-Coracao Vagabundo
DR12      -3.10 дБ   -16.33 дБ      4:08 12-Waiting For Him
DR12      -3.18 дБ   -17.50 дБ      6:55 13-Afro-Samba's Medley
--------------------------------------------------------------------------------

Количество треков: 13
Реальные значения DR: DR12

Частота:  2822400 Гц / Частота PCM: 352800 Гц
Каналов:  2
Разрядность:   1
Битрейт:  5645 кбит/с
Кодек:   DSD64
================================================================================
Приватный:
Нет (DHT включён)
Размер:
2.25 Гб (2,414,026,532 байт) » файлов: 4
Участники:
0 раздают, 0 качают (0 участников всего)
Внешние участники:
9 раздают, 3 качают (12 участников всего) [ Обновить ]
No seeders - write personal message to M0p94ok. Any questions - support@pro-jazz.com.
Нет сидеров - пишите в личку M0p94ok. Есть вопросы - support@pro-jazz.com
02:31
116
Нет комментариев. Ваш будет первым!