Поиск

1983 Jay Leonhart - Salamander Pie (1999) {DMP} [DSD64]

1983 Jay Leonhart - Salamander Pie (1999) {DMP} [DSD64]
Дата записи диска:
19 марта и 29 марта 1983
Место записи:
A&R Studios, New York City, NY, USA
Битрейт аудио:
lossless
Доп. инфо:

Формат записи/Источник записи: [SACD-R][OF]
Наличие водяных знаков: Нет
Год издания/переиздания диска: 1983/1999
Издатель (лейбл): DMP
Продолжительность: 01:04:07
Наличие сканов в содержимом раздачи: Только обложка альбома

Контейнер: ISO (*.iso)
Тип рипа: image
Разрядность: 64(2,8 MHz/1 Bit)
Формат: DSD
Количество каналов: 2.0

Доп. информация: www.hraudio.net

Лог проверки качества
foobar2000 1.6.2 / Замер динамического диапазона (DR) 1.1.1
Дата отчёта:  2020-12-06 18:14:54

--------------------------------------------------------------------------------
Анализ:   Jay Leonhart / Salamander Pie
--------------------------------------------------------------------------------

DR         Пики         RMS           Продолжительность трека
--------------------------------------------------------------------------------
DR15      -4.68 дБ   -23.03 дБ      3:55 01-Look Down Off A Bridge
DR16      -3.67 дБ   -24.22 дБ      4:16 02-Robert Frost
DR14      -3.54 дБ   -21.26 дБ      3:43 03-Drink No More
DR15      -4.90 дБ   -23.42 дБ      3:51 04-Sometimes I Think
DR15      -1.10 дБ   -20.39 дБ      1:59 05-Jujubes
DR15      -4.43 дБ   -23.64 дБ      3:01 06-Caribbean Island
DR15      -4.41 дБ   -21.94 дБ      4:41 07-Flight 861
DR14      -9.90 дБ   -25.02 дБ      1:25 08-Salamander Pie
DR15      -8.24 дБ   -25.75 дБ      5:26 09-Let The Flower Grow
DR14      -8.00 дБ   -24.65 дБ      1:50 10-Beat My Dog
DR15      -6.05 дБ   -23.77 дБ      3:49 11-Chantecler
DR15      -4.90 дБ   -22.90 дБ      3:49 12-Giant Flies
DR15      -7.05 дБ   -24.81 дБ      3:42 13-Kentucky Wild Flower
DR16      -3.89 дБ   -23.13 дБ      4:36 14-Momma Don't You Think...
DR17       0.00 дБ   -20.65 дБ      5:22 15-Goodbye Miami
DR16      -8.16 дБ   -25.81 дБ      3:58 16-Uncle Jim
DR18       0.00 дБ   -21.59 дБ      4:45 17-Doublecross
--------------------------------------------------------------------------------

Количество треков: 17
Реальные значения DR: DR15

Частота:  2822400 Гц / Частота PCM: 352800 Гц
Каналов:  2
Разрядность:   1
Битрейт:  5645 кбит/с
Кодек:   DSD64
================================================================================
No seeders - write personal message to M0p94ok. Any questions - support@pro-jazz.com.
Нет сидеров - пишите в личку M0p94ok. Есть вопросы - support@pro-jazz.com
01:08
166
Нет комментариев. Ваш будет первым!