Поиск

2019 Coastline Paradox - Welf & Eiger {Col Legno} [24-44.1]

2019 Coastline Paradox - Welf & Eiger {Col Legno} [24-44.1]
Стили:
Место записи:
HKB Studios, Bern, Switzerland
Дата издания диска:
17 мая 2019
Битрейт аудио:
lossless
Доп. инфо:

Формат записи/Источник записи: [TR24][OF]
Наличие водяных знаков: Нет
Год издания/переиздания диска: 2017
Издатель (лейбл): Col Legno
Продолжительность: 52:50
Наличие сканов в содержимом раздачи: Только обложка альбома

Контейнер: FLAC (*.flac)
Тип рипа: tracks
Разрядность: 24/44,1
Формат: PCM
Количество каналов: 2.0
Источник (релизер): Qobuz

Лог проверки качества
foobar2000 1.4 / Dynamic Range Meter 1.1.1
log date: 2020-12-06 16:49:57

--------------------------------------------------------------------------------
Analyzed: Coastline Paradox / Welf & Eiger
--------------------------------------------------------------------------------

DR         Peak         RMS     Duration Track
--------------------------------------------------------------------------------
DR12      -0.02 dB   -15.35 dB      5:46 01-Bar? Ok!
DR10      -0.01 dB   -13.09 dB      6:02 02-Die Weiche
DR10      -0.02 dB   -14.13 dB      6:35 03-Das Muss Sein
DR12      -0.03 dB   -14.40 dB      2:58 04-Colonel Grefsen
DR12      -0.01 dB   -14.67 dB      4:13 05-Tannenwald
DR14      -0.03 dB   -18.51 dB     14:45 06-Die Rache
DR10      -0.02 dB   -15.86 dB     12:31 07-Trist Sel
--------------------------------------------------------------------------------

Number of tracks:  7
Official DR value: DR11

Samplerate:        44100 Hz
Channels:          2
Bits per sample:   24
Bitrate:           1329 kbps
Codec:             FLAC
================================================================================
No seeders - write personal message to M0p94ok. Any questions - support@pro-jazz.com.
Нет сидеров - пишите в личку M0p94ok. Есть вопросы - support@pro-jazz.com
23:15
144
Нет комментариев. Ваш будет первым!