Поиск

2013 Max von Mosch Orchestra - Berlin Kaboom! {ACT 9559-2} [24-44.1]

2013 Max von Mosch Orchestra - Berlin Kaboom! {ACT 9559-2} [24-44.1]
Стили:
Дата записи диска:
26 июля - 28 июля 2012
Место записи:
Jazzclub Unterfahrt, München, Germany
Дата издания диска:
27 сентября 2013
Издатель (лейбл):
Номер по каталогу:
ACT 9559-2
Носитель:
WEB
Формат:
PCM
Тип рипа:
tracks+.cue
Контейнер:
APE (*.ape)
Количество каналов:
2.0
Разрядность/ЧД:
24/44,1
Битрейт аудио:
lossless
Время звучания:
00:56:29
Наличие сканов:
web
Наличие водяных знаков:
нет
Страна-производитель диска (релиза):
Germany
Релизёр (источник):
M0p94ok

Треклист:

1. Space Walk (Live) feat. Christian Weidner  07:05
2. Ballet of the Gnomes (Live) feat. Christian Weidner, Andy Haderer  10:31
3. Berlin Kaboom! Suite: Pretty But Untamed (Live) feat. Max von Mosch  08:55
4. Berlin Kaboom! Suite: Dark Sheen (Live) feat. Gregor Bürger  04:21
5. Berlin Kaboom! Suite: Rugged (Live) feat. Matthias Schriefl, Christian Weidner  10:33
6. Kazakhstan (Live) feat. Adrian Mears  07:59
7. Human Intent (Live) feat. Jonas Burgwinkel, Adrian Mears  07:05

Лог проверки качества
foobar2000 1.3.16 / Dynamic Range Meter 1.1.1
log date: 2019-04-09 17:39:01

--------------------------------------------------------------------------------
Analyzed: Adrian Mears / Berlin Kaboom! (Live) (1-2)
          Christian Weidner / Berlin Kaboom! (Live) (3-5)
          Max von Mosch Orchestra / Berlin Kaboom! (Live) (6-7)
--------------------------------------------------------------------------------

DR         Peak         RMS     Duration Track
--------------------------------------------------------------------------------
DR13      -0.21 dB   -18.25 dB      8:00 06-Kazakhstan
DR10      -0.21 dB   -14.89 dB      7:06 07-Human Intent
DR13      -0.21 dB   -16.83 dB      7:06 01-Space Walk
DR13      -0.21 dB   -16.63 dB     10:31 02-Ballet of the Gnomes
DR13      -0.21 dB   -16.59 dB     10:34 05-Berlin Kaboom! Suite: Rugged
DR12      -0.21 dB   -15.84 dB      8:55 03-Berlin Kaboom! Suite: Pretty But Untamed
DR14      -0.21 dB   -18.92 dB      4:21 04-Berlin Kaboom! Suite: Dark Sheen
--------------------------------------------------------------------------------

Number of tracks:  7
Official DR value: DR13

Samplerate:        44100 Hz
Channels:          2
Bits per sample:   24
Bitrate:           1418 kbps
Codec:             FLAC
================================================================================
Приватный:
Нет (DHT включён)
Размер:
601.48 Мб (630,692,379 байт) » файлов: 9
Участники:
0 раздают, 0 качают (0 участников всего)
Внешние участники:
--- [ Обновить ]
No seeders - write personal message to M0p94ok. Any questions - support@pro-jazz.com.
Нет сидеров - пишите в личку M0p94ok. Есть вопросы - support@pro-jazz.com
22:40
112
Нет комментариев. Ваш будет первым!