Поиск

1971 Bernard Purdie - Purdie Good! (2020) {Craft} [24-192]

1971 Bernard Purdie - Purdie Good! (2020) {Craft} [24-192]
Стили:
Битрейт аудио:
lossless
Доп. инфо:

Формат записи/Источник записи: [TR24][OF]
Издание: Remastered
Год издания/переиздания диска: 1971/2020
Издатель (лейбл): Craft
Продолжительность: 00:35:38
Наличие сканов в содержимом раздачи: Нет

Контейнер: FLAC (*.flac)
Тип рипа: tracks
Разрядность: 24/192
Количество каналов: 2.0

Источник (релизер): HIGHRESAUDIO

 

Лог проверки качества
foobar2000 1.4.3 / Dynamic Range Meter 1.1.1
log date: 2020-11-28 15:30:46

--------------------------------------------------------------------------------
Analyzed: Bernard Purdie / Purdie Good!
--------------------------------------------------------------------------------

DR         Peak         RMS     Duration Track
--------------------------------------------------------------------------------
DR12      -0.20 dB   -15.52 dB      5:42 01-Cold Sweat
DR14      -0.20 dB   -17.23 dB      5:45 02-Montego Bay
DR13      -0.20 dB   -16.77 dB      6:32 03-Purdie Good
DR11      -0.20 dB   -15.49 dB      6:12 04-Wasteland
DR12      -0.20 dB   -14.28 dB      5:20 05-Everybody's Talkin'
DR12      -0.20 dB   -15.57 dB      6:28 06-You Turn Me On
--------------------------------------------------------------------------------

Number of tracks:  6
Official DR value: DR12

Samplerate:        192000 Hz
Channels:          2
Bits per sample:   24
Bitrate:           5788 kbps
Codec:             FLAC
================================================================================
No seeders - write personal message to M0p94ok. Any questions - support@pro-jazz.com.
Нет сидеров - пишите в личку M0p94ok. Есть вопросы - support@pro-jazz.com
21:27
166
Нет комментариев. Ваш будет первым!