Поиск

1995 Adela Dalto - Peace {Venus VHGD-333} [DSD64]

1995 Adela Dalto - Peace {Venus VHGD-333} [DSD64]
Издатель (лейбл):
Номер по каталогу:
VHGD-333
Битрейт аудио:
lossless

Треклист:

01. April Child  04:12
02. I'll Always Remember  05:45
03. Papagaio Rei  04:29
04. Falando De Amor  03:48
05. Guajiro Mio  06:33
06. Peace  05:06
07. Sweet Spring  05:23
08. Sad Love Song  05:12
09. Estaba En Nada  05:11
10. Papa Boco  07:01

Доп. инфо:

Формат записи/Источник записи: [SACD-R][OF]
Наличие водяных знаков: Нет
Год издания/переиздания диска: 1995/2019
Продолжительность: 00:52:42
Наличие сканов в содержимом раздачи: Да (сканы)

Контейнер: ISO (*.iso)
Тип рипа: image
Разрядность: 64(2,8 MHz/1 Bit)
Формат: DSD
Количество каналов: 2.0

Источник (релизер): jazzy pic

Лог проверки качества
foobar2000 1.6.2 / Замер динамического диапазона (DR) 1.1.1
Дата отчёта:  2020-12-05 17:46:44

--------------------------------------------------------------------------------
Анализ:   ADELA DALTO / Peace
--------------------------------------------------------------------------------

DR         Пики         RMS           Продолжительность трека
--------------------------------------------------------------------------------
DR9       -2.82 дБ   -12.84 дБ      4:12 01-April Child
DR9       -2.96 дБ   -13.43 дБ      5:45 02-I'll Always Remember
DR9       -2.94 дБ   -13.04 дБ      4:29 03-Papagaio Rei
DR9       -3.18 дБ   -14.19 дБ      3:48 04-Falando De Amor
DR10      -2.79 дБ   -14.04 дБ      6:33 05-Guajiro Mio
DR9       -3.15 дБ   -14.34 дБ      5:06 06-Peace
DR8       -3.02 дБ   -13.70 дБ      5:23 07-Sweet Spring
DR9       -3.37 дБ   -14.17 дБ      5:12 08-Sad Love Song
DR8       -2.72 дБ   -12.29 дБ      5:11 09-Estaba En Nada
DR8       -3.00 дБ   -12.45 дБ      7:01 10-Papa Boco
--------------------------------------------------------------------------------

Количество треков: 10
Реальные значения DR: DR9

Частота:  2822400 Гц / Частота PCM: 352800 Гц
Каналов:  2
Разрядность:   1
Битрейт:  5645 кбит/с
Кодек:   DSD64
================================================================================
Приватный:
Нет (DHT включён)
Размер:
2.12 Гб (2,281,041,450 байт) » файлов: 4
Участники:
0 раздают, 0 качают (0 участников всего)
Внешние участники:
5 раздают, 2 качают (7 участников всего) [ Обновить ]
No seeders - write personal message to M0p94ok. Нет сидеров - пишите в личку M0p94ok.
17:27
118
Нет комментариев. Ваш будет первым!