Поиск

2019 Max Petersen Trio - Divine Traces {QFTF} [24-96]

2019 Max Petersen Trio - Divine Traces {QFTF} [24-96]
Стили:
Дата записи диска:
19 января - 20 января 2019
Место записи:
Zurich University of the Arts, Zurich, Switerland
Дата издания диска:
26 апреля 2019
Носитель:
WEB
Формат:
PCM
Тип рипа:
tracks+.cue
Контейнер:
APE (*.ape)
Количество каналов:
2.0
Разрядность/ЧД:
24/96
Битрейт аудио:
lossless
Время звучания:
00:41:58
Наличие сканов:
web
Наличие водяных знаков:
нет
Страна-производитель диска (релиза):
Germany
Релизёр (источник):
M0p94ok

Треклист:

1. Pathos Piece  07:39
2. Advertency  05:15
3. Divine Traces  06:00
4. Cadenza  02:09
5. No Change please  08:41
6. Gift  08:09
7. Bondi Boy  04:05

Лог проверки качества
foobar2000 1.3.16 / Dynamic Range Meter 1.1.1
log date: 2019-04-22 16:37:41

--------------------------------------------------------------------------------
Analyzed: Max Petersen Trio / Divine Traces
--------------------------------------------------------------------------------

DR         Peak         RMS     Duration Track
--------------------------------------------------------------------------------
DR10      -0.09 dB   -14.23 dB      7:39 01-Pathos Piece
DR11      -0.20 dB   -12.56 dB      5:16 02-Advertency
DR12       0.00 dB   -15.88 dB      6:01 03-Divine Traces
DR8       -0.20 dB   -11.87 dB      2:10 04-Cadenza
DR12       0.00 dB   -15.20 dB      8:41 05-No Change please
DR11      -0.20 dB   -15.98 dB      8:09 06-Gift
DR10       0.00 dB   -13.94 dB      4:06 07-Bondi Boy
--------------------------------------------------------------------------------

Number of tracks:  7
Official DR value: DR11

Samplerate:        96000 Hz
Channels:          2
Bits per sample:   24
Bitrate:           2702 kbps
Codec:             FLAC
================================================================================
Приватный:
Нет (DHT включён)
Размер:
840.48 Мб (881,309,153 байт) » файлов: 9
Участники:
1 раздают, 1 качают (2 участников всего)
Внешние участники:
--- [ Обновить ]
No seeders - write personal message to M0p94ok. Нет сидеров - пишите в личку M0p94ok.
15:34
113
Нет комментариев. Ваш будет первым!