Поиск

2018 Malakoff Kowalski - My First Piano {MPS 0211862MS1} [24-88.2]

2018 Malakoff Kowalski - My First Piano {MPS 0211862MS1} [24-88.2]
Дата записи диска:
27 октября - 6 ноября 2017
Место записи:
Brunnen International, Berlin, Germany
Дата издания диска:
6 апреля 2018
Номер по каталогу:
0211862MS1
Носитель:
WEB
Формат:
PCM
Тип рипа:
tracks+.cue
Контейнер:
APE (*.ape)
Количество каналов:
2.0
Разрядность/ЧД:
24/88,2
Битрейт аудио:
lossless
Время звучания:
00:38:34
Наличие сканов:
да
Страна-производитель диска (релиза):
Germany
Релизёр (источник):
M0p94ok
Лог проверки качества
foobar2000 1.3.16 / Dynamic Range Meter 1.1.1
log date: 2019-04-17 00:51:59

--------------------------------------------------------------------------------
Analyzed: Malakoff Kowalski / My First Piano
--------------------------------------------------------------------------------

DR         Peak         RMS     Duration Track
--------------------------------------------------------------------------------
DR15      -1.60 dB   -20.79 dB      3:29 01-Shorou
DR13      -1.58 dB   -18.70 dB      3:04 02-My First Piano
DR12      -5.98 dB   -21.74 dB      2:38 03-Is It Spring?
DR15      -1.65 dB   -20.57 dB      3:09 04-Dimanche soir
DR16      -1.58 dB   -21.56 dB      3:21 05-Serge chez Juliette encore une fois
DR14      -2.42 dB   -21.14 dB      3:14 06-65 East India Row
DR13      -4.19 dB   -22.81 dB      3:23 07-Euphoria, Lobster & Champagne
DR13      -3.95 dB   -20.74 dB      5:10 08-Olmo Rosenthal
DR13      -7.48 dB   -23.50 dB      3:17 09-Tehran Lullaby
DR14      -2.33 dB   -21.05 dB      7:55 10-Anin Goldkind
--------------------------------------------------------------------------------

Number of tracks:  10
Official DR value: DR14

Samplerate:        88200 Hz
Channels:          2
Bits per sample:   24
Bitrate:           2235 kbps
Codec:             FLAC
================================================================================
No seeders - write personal message to M0p94ok. Any questions - support@pro-jazz.com.
Нет сидеров - пишите в личку M0p94ok. Есть вопросы - support@pro-jazz.com
18:03
175
Нет комментариев. Ваш будет первым!