Поиск

1994 Adela Dalto - Blue Bossa (2018) {Venus VHGD-292} [DSD64]

1994 Adela Dalto - Blue Bossa (2018) {Venus VHGD-292} [DSD64]
Стили:
Издатель (лейбл):
Номер по каталогу:
VHGD-292
Битрейт аудио:
lossless
Доп. инфо:

Формат записи/Источник записи: [SACD-R][OF]
Наличие водяных знаков: Нет
Год издания/переиздания диска: 1994/2018
Продолжительность: 00:49:31
Наличие сканов в содержимом раздачи: Да (сканы)

Контейнер: ISO (*.iso)
Тип рипа: image
Разрядность: 64(2,8 MHz/1 Bit)
Формат: DSD
Количество каналов: 2.0

Источник (релизер): jazzy pic

Лог проверки качества
foobar2000 1.6.2 / Замер динамического диапазона (DR) 1.1.1
Дата отчёта:  2020-12-05 16:44:09

--------------------------------------------------------------------------------
Анализ:   ADERA DALTO / Blue Bossa
--------------------------------------------------------------------------------

DR         Пики         RMS           Продолжительность трека
--------------------------------------------------------------------------------
DR8       -2.47 дБ   -12.86 дБ      4:52 01-Blue For You [ Instrumentally known as "Blue Bossa"]
DR9       -2.88 дБ   -13.10 дБ      3:56 02-Freedom Jazz Dance
DR7       -2.77 дБ   -12.11 дБ      3:48 03-A Brazilian Affair
DR8       -2.54 дБ   -12.25 дБ      4:22 04-Into The Night
DR9       -2.38 дБ   -13.86 дБ      4:39 05-Emorio
DR9       -2.96 дБ   -13.94 дБ      5:15 06-Love Me With Your Heart
DR8       -2.82 дБ   -12.44 дБ      3:36 07-Una Manana ( Morning )
DR9       -2.52 дБ   -13.05 дБ      3:10 08-I'll Remember Your Name
DR8       -2.61 дБ   -12.46 дБ      5:16 09-The Days of Wine and Roses
DR9       -2.65 дБ   -12.75 дБ      5:21 10-Agua De Beber ( Water To Drink )
DR9       -2.84 дБ   -13.58 дБ      5:14 11-Summertime
--------------------------------------------------------------------------------

Количество треков: 11
Реальные значения DR: DR8

Частота:  2822400 Гц / Частота PCM: 352800 Гц
Каналов:  2
Разрядность:   1
Битрейт:  5645 кбит/с
Кодек:   DSD64
================================================================================
No seeders - write personal message to M0p94ok. Any questions - support@pro-jazz.com.
Нет сидеров - пишите в личку M0p94ok. Есть вопросы - support@pro-jazz.com
15:29
159
Нет комментариев. Ваш будет первым!