Поиск

2005 Sarah Moule - Something's Gotta Give {Linn AKD 239} [DST64]

2005 Sarah Moule - Something's Gotta Give {Linn AKD 239} [DST64]
Стили:
Дата издания диска:
1 сентября 2005
Издатель (лейбл):
Номер по каталогу:
AKD 239
Битрейт аудио:
lossless
Доп. инфо:

Формат записи/Источник записи: [SACD-R][OF]
Наличие водяных знаков: Нет
Год издания/переиздания диска: 2004
Продолжительность: 49:51
Наличие сканов в содержимом раздачи: Да (сканы)
Источник (релизер): HRAudio.net
Контейнер: ISO (*.iso)
Тип рипа: image
Разрядность: 64 (2,8 MHz/1 Bit)
Формат: DST64
Количество каналов: 5.1, 2.0

Лог проверки качества
foobar2000 1.5.4 / Dynamic Range Meter 1.1.1
log date: 2020-09-25 08:16:57

--------------------------------------------------------------------------------
Analyzed: Sarah Moule / Something's Gotta Give
--------------------------------------------------------------------------------

DR         Peak         RMS     Duration Track
--------------------------------------------------------------------------------
DR14      -6.05 dB   -24.87 dB      3:26 01-Something's Gotta Give
DR12      -9.26 dB   -26.01 dB      3:57 02-How Was It For You?
DR13      -7.14 dB   -24.07 dB      3:19 03-I'm Old Fashioned
DR13      -8.49 dB   -25.97 dB      3:59 04-Save the Photographs
DR13      -5.69 dB   -24.03 dB      3:59 05-That Old Black Magic
DR11      -9.82 dB   -25.05 dB      3:22 06-What Love Knows
DR12      -6.23 dB   -23.67 dB      3:08 07-Jeepers Creepers
DR12      -9.38 dB   -28.72 dB      3:26 08-Days of Wine and Roses
DR13      -5.92 dB   -23.85 dB      3:01 09-Come Rain or Come Shine
DR12      -8.81 dB   -25.53 dB      4:29 10-Down
DR13      -6.50 dB   -23.88 dB      3:24 11-You're So Now
DR12      -7.70 dB   -25.04 dB      3:18 12-Trav'lin' Light
DR12      -8.80 dB   -24.84 dB      2:50 13-High Noon
DR12     -10.89 dB   -30.62 dB      4:04 14-Spring Can Really Hang You Up the Most
--------------------------------------------------------------------------------

Number of tracks:  14
Official DR value: DR12

Samplerate:        2822400 Hz / PCM Samplerate: 176400 Hz
Channels:          6
Bits per sample:   1
Bitrate:           16934 kbps
Codec:             DST64
================================================================================

--------------------------------------------------------------------------------
Analyzed: Sarah Moule / Something's Gotta Give
--------------------------------------------------------------------------------

DR         Peak         RMS     Duration Track
--------------------------------------------------------------------------------
DR12      -5.92 dB   -19.49 dB      3:26 01-Something's Gotta Give
DR11      -7.73 dB   -21.16 dB      3:57 02-How Was It For You?
DR11      -5.58 dB   -19.63 dB      3:18 03-I'm Old Fashioned
DR11      -9.50 dB   -23.00 dB      3:59 04-Save the Photographs
DR12      -6.42 dB   -20.28 dB      4:00 05-That Old Black Magic
DR9       -8.15 dB   -20.20 dB      3:22 06-What Love Knows
DR10      -6.99 dB   -19.07 dB      3:08 07-Jeepers Creepers
DR10      -8.47 dB   -23.38 dB      3:26 08-Days of Wine and Roses
DR11      -6.75 dB   -19.40 dB      3:01 09-Come Rain or Come Shine
DR11      -7.69 dB   -20.72 dB      4:29 10-Down
DR10      -7.16 dB   -19.47 dB      3:24 11-You're So Now
DR10      -6.99 dB   -20.43 dB      3:19 12-Trav'lin' Light
DR10      -8.11 dB   -19.94 dB      2:51 13-High Noon
DR11     -10.03 dB   -25.13 dB      4:00 14-Spring Can Really Hang You Up the Most
--------------------------------------------------------------------------------

Number of tracks:  14
Official DR value: DR11

Samplerate:        2822400 Hz / PCM Samplerate: 176400 Hz
Channels:          2
Bits per sample:   1
Bitrate:           5645 kbps
Codec:             DST64
================================================================================
No seeders - write personal message to M0p94ok. Any questions - support@pro-jazz.com.
Нет сидеров - пишите в личку M0p94ok. Есть вопросы - support@pro-jazz.com
13:18
229
Нет комментариев. Ваш будет первым!