Вы используете незарегистрированную версию компонента "Вкладки"!

Поиск

1961 Lucio Alves - Tio Samba! (2019) {RevOla} [24-44.1]

1961 Lucio Alves - Tio Samba! (2019) {RevOla} [24-44.1]
Стили:
Дата переиздания диска:
1 апреля 2019
Издатель (лейбл):
Носитель:
WEB
Формат:
PCM
Тип рипа:
tracks+.cue
Контейнер:
APE (*.ape)
Количество каналов:
2.0
Разрядность/ЧД:
24/44,1
Битрейт аудио:
lossless
Время звучания:
00:31:45
Наличие сканов:
web
Страна-производитель диска (релиза):
Brazil
Релизёр (источник):
M0p94ok
Лог проверки качества
foobar2000 1.3.16 / Dynamic Range Meter 1.1.1
log date: 2019-04-10 01:42:24

--------------------------------------------------------------------------------
Analyzed: Lucio Alves / Tio Samba!
--------------------------------------------------------------------------------

DR         Peak         RMS     Duration Track
--------------------------------------------------------------------------------
DR11      -3.22 dB   -16.99 dB      3:11 01-Sem Cessar (All The Way)
DR11      -0.72 dB   -13.50 dB      2:00 02-A Sobrinha da Judite (On the sunny side of the street)
DR11      -2.62 dB   -17.27 dB      2:40 03-Murmurando (Whispering)
DR11      -2.39 dB   -16.36 dB      2:58 04-Coisas Que Lembram Você (These foolish things)
DR12      -1.32 dB   -16.11 dB      3:24 05-Magia (It's Magic)
DR10      -1.72 dB   -15.45 dB      2:59 06-Imaginação (Among my Souvenirs)
DR11      -1.66 dB   -14.77 dB      2:31 07-Tudo Acontece Comigo (Everything happens to me)
DR12      -1.32 dB   -16.97 dB      2:59 08-Canção da Mula  (Swinging on a Star)
DR10      -1.69 dB   -14.82 dB      3:02 09-Só Penso em Você  (I only have eyes for you)
DR12      -0.50 dB   -14.87 dB      1:57 10-Fim de Semana  (In a little Spanish town)
DR11      -2.01 dB   -15.24 dB      2:02 11-Boneca de Papel  (Paper Doll)
DR10      -1.13 dB   -13.87 dB      2:09 12-Sábado à Noite (Saturday night)
--------------------------------------------------------------------------------

Number of tracks:  12
Official DR value: DR11

Samplerate:        44100 Hz
Channels:          2
Bits per sample:   24
Bitrate:           1149 kbps
Codec:             FLAC
================================================================================
Any questions - support@pro-jazz.com. Есть вопросы - support@pro-jazz.com
00:32
167
Нет комментариев. Ваш будет первым!