Поиск

2018 Louise Jallu - Francesita {Klarthe} [24-44,1]

2018 Louise Jallu - Francesita {Klarthe} [24-44,1]
Стили:
Дата издания диска:
6 апреля 2018
Носитель:
WEB
Формат:
PCM
Тип рипа:
tracks+.cue
Контейнер:
APE (*.ape)
Количество каналов:
2.0
Разрядность/ЧД:
24/44,1
Битрейт аудио:
lossless
Время звучания:
01:30:09
Наличие сканов:
web
Релизёр (источник):
M0p94ok
Лог проверки качества
foobar2000 1.3.16 / Dynamic Range Meter 1.1.1
log date: 2019-04-23 15:13:30

--------------------------------------------------------------------------------
Analyzed: Louise Jallu feat. Sanseverino & Claude Barthélemy & Katerina Fotinaki & Tomas Gubitsch & Grégoire Letouvet & Anthony Millet & César Stroscio & Claude / Francesita
--------------------------------------------------------------------------------

DR         Peak         RMS     Duration Track
--------------------------------------------------------------------------------
DR11      -0.79 dB   -15.49 dB      3:00 01-À Gennevilliers
DR9       -0.72 dB   -11.73 dB      3:15 02-Francesita
DR10      -0.69 dB   -12.53 dB      3:15 03-Araca corazón
DR11      -0.64 dB   -14.62 dB      5:37 04-7 huîtres
DR10      -0.69 dB   -13.96 dB      2:59 05-Recuerdos de bohemia
DR11      -0.73 dB   -15.29 dB      0:57 06-Colinda
DR11      -0.80 dB   -15.90 dB      2:39 07-La montonera
DR11      -0.75 dB   -16.27 dB      3:53 08-Griseta
DR8       -0.70 dB   -11.51 dB      3:31 09-María
DR11      -0.65 dB   -14.86 dB      4:54 10-Sonatine 43
DR10      -0.72 dB   -14.42 dB      3:51 11-La última curda
DR10      -0.70 dB   -14.18 dB      3:41 12-À Gennevilliers
DR8       -0.64 dB   -13.24 dB      3:50 13-Griseta
DR9       -0.72 dB   -13.17 dB      3:17 14-Francesita
DR10      -0.70 dB   -12.84 dB      3:53 15-Claudinette
DR8       -0.64 dB   -12.17 dB      6:15 16-7 huîtres
DR9       -0.66 dB   -11.80 dB      5:09 17-Au paradis perdu
DR9       -0.71 dB   -13.27 dB      4:03 18-La montonera
DR9       -0.68 dB   -11.91 dB      3:11 19-Araca corazón
DR8       -0.73 dB   -12.17 dB      3:38 20-Recuerdos de bohemia
DR9       -0.71 dB   -12.17 dB      4:01 21-La copa del olvido
DR9       -0.68 dB   -13.02 dB      4:00 22-À Gennevilliers
DR8       -0.72 dB   -13.08 dB      3:52 23-La última curda
DR9       -0.66 dB   -12.24 dB      3:46 24-Sur
--------------------------------------------------------------------------------

Number of tracks:  24
Official DR value: DR9

Samplerate:        44100 Hz
Channels:          2
Bits per sample:   24
Bitrate:           1457 kbps
Codec:             FLAC
================================================================================
No seeders - write personal message to M0p94ok. Any questions - support@pro-jazz.com.
Нет сидеров - пишите в личку M0p94ok. Есть вопросы - support@pro-jazz.com
19:25
133
Нет комментариев. Ваш будет первым!