Поиск

2020 Silje Nergaard - Hamar Railway Station {OKeh} [24-96]

2020 Silje Nergaard - Hamar Railway Station {OKeh} [24-96]
Стили:
Дата издания диска:
4 декабря 2020
Издатель (лейбл):
Битрейт аудио:
lossless
Доп. инфо:

Формат записи/Источник записи: [TR24][OF]
Наличие водяных знаков: Нет
Год издания: 2020
Продолжительность: 01:08:27
Наличие сканов в содержимом раздачи: Только обложка альбома
Контейнер: FLAC (*.flac)
Тип рипа: tracks
Разрядность: 24/96
Формат: PCM
Количество каналов: 2.0
Источник (релизер): qobuz.com

Лог проверки качества
foobar2000 1.4.8 / Dynamic Range Meter 1.1.1
log date: 2020-12-04 16:55:32

--------------------------------------------------------------------------------
Analyzed: Silje Nergaard / Hamar Railway Station
--------------------------------------------------------------------------------

DR         Peak         RMS     Duration Track
--------------------------------------------------------------------------------
DR14      -4.68 dB   -21.72 dB      1:23 01-Next Stop Hamar
DR7       -0.77 dB    -9.54 dB      5:43 02-The Train Now Standing
DR8       -0.76 dB   -10.57 dB      4:16 03-Never Happier Than This
DR8       -0.86 dB   -12.49 dB      3:49 04-Departure Times
DR8       -0.59 dB   -12.16 dB      6:42 05-The Railway Girl
DR9       -2.67 dB   -15.60 dB      5:05 06-Waiting Room
DR7       -0.36 dB    -9.56 dB      3:50 07-Train of Fragile Hearts
DR8       -0.88 dB   -12.60 dB      3:34 08-The Night Traveller
DR14      -4.68 dB   -21.72 dB      1:23 09-Neste stopp Hamar
DR7       -0.45 dB    -9.43 dB      5:44 10-Perrong
DR8       -0.85 dB   -10.53 dB      4:16 11-Ennå underveis
DR8       -0.88 dB   -12.48 dB      3:49 12-Avgang
DR8       -0.80 dB   -12.41 dB      6:42 13-Togjenta
DR11      -0.92 dB   -15.23 dB      5:05 14-Tiden det tar
DR7       -0.60 dB    -9.56 dB      3:50 15-Et lite Rykk
DR8       -0.88 dB   -12.83 dB      3:33 16-Nattoget
--------------------------------------------------------------------------------

Number of tracks:  16
Official DR value: DR9
Samplerate:        96000 Hz
Channels:          2
Bits per sample:   24
Bitrate:           2609 kbps
Codec:             FLAC
================================================================================
No seeders - write personal message to M0p94ok. Any questions - support@pro-jazz.com.
Нет сидеров - пишите в личку M0p94ok. Есть вопросы - support@pro-jazz.com
16:07
172
Нет комментариев. Ваш будет первым!