Поиск

1963 Los Bossambistas - Los Bossambistas y La Bossa Nova! (2019) {RevOla} [24-44,1]

1963 Los Bossambistas - Los Bossambistas y La Bossa Nova! (2019) {RevOla} [24-44,1]
Дата издания диска:
1963
Дата переиздания диска:
19 марта 2019
Издатель (лейбл):
Носитель:
WEB
Формат:
PCM
Тип рипа:
tracks+.cue
Контейнер:
APE (*.ape)
Количество каналов:
2.0
Разрядность/ЧД:
24/44,1
Битрейт аудио:
lossless
Время звучания:
00:27:50
Наличие сканов:
web
Наличие водяных знаков:
нет
Страна-производитель диска (релиза):
Argentina
Релизёр (источник):
M0p94ok

Треклист:

01. Promessa (Remastered)  01:38
02. Samba Dissonante (Remastered)  02:39
03. El Amor Y La Rosa (O Amor E A Rosa) (Remastered)  02:34
04. Quiero Bossar (Remastered)  01:56
05. El Pato (Remastered)  02:28
06. Samba de Mi Tierra (Remastered)  01:32
07. Te Para Dos (Remastered)  02:09
08. Solo (Remastered)  02:40
09. Paloma (Remastered)  02:56
10. El Barquito (O Barquinho) (Remastered)  02:26
11. Maria (Remastered)  02:14
12. Meditación (Meditação) (Remastered)  02:38

Лог проверки качества
foobar2000 1.6.2 / Dynamic Range Meter 1.1.1
log date: 2021-01-27 14:22:43

--------------------------------------------------------------------------------
Analyzed: Los Bossambistas / Los Bossambistas y La Bossa Nova!
--------------------------------------------------------------------------------

DR         Peak         RMS     Duration Track
--------------------------------------------------------------------------------
DR12      -2.79 dB   -17.25 dB      1:38 01-Promessa
DR12      -2.92 dB   -16.95 dB      2:40 02-Samba Dissonante
DR11      -4.44 dB   -17.91 dB      2:34 03-El Amor Y La Rosa (O Amor E A Rosa)
DR11      -3.69 dB   -17.87 dB      1:57 04-Quiero Bossar
DR12      -3.79 dB   -18.50 dB      2:28 05-El Pato
DR12      -3.07 dB   -17.10 dB      1:32 06-Samba de Mi Tierra
DR12      -2.67 dB   -16.74 dB      2:09 07-Te Para Dos
DR11      -5.00 dB   -18.49 dB      2:40 08-Solo
DR11      -3.04 dB   -16.79 dB      2:57 09-Paloma
DR13      -2.30 dB   -17.51 dB      2:26 10-El Barquito (O Barquinho)
DR10      -4.48 dB   -16.33 dB      2:15 11-Maria
DR11      -2.89 dB   -15.98 dB      2:39 12-Meditación (Meditação)
--------------------------------------------------------------------------------

Number of tracks:  12
Official DR value: DR11

Samplerate:        44100 Hz
Channels:          2
Bits per sample:   24
Bitrate:           1316 kbps
Codec:             FLAC
================================================================================
Приватный:
Нет (DHT включён)
Размер:
260.25 Мб (272,895,845 байт) » файлов: 14
Участники:
0 раздают, 0 качают (0 участников всего)
Внешние участники:
--- [ Обновить ]
No seeders - write personal message to M0p94ok. Any questions - support@pro-jazz.com.
Нет сидеров - пишите в личку M0p94ok. Есть вопросы - support@pro-jazz.com
15:28
143
Нет комментариев. Ваш будет первым!