Поиск

2019 Knut Riisnæs Quartet ‎– The Kernel {Losen LOS 223-2} [24-48]

2019 Knut Riisnæs Quartet ‎– The Kernel {Losen LOS 223-2} [24-48]
Стили:
Дата записи диска:
26 сентября 2018; 11 февраля 2019
Место записи:
Atletic Sound, Halden, Norwary; Musikkloftet, Asker, Norway
Дата издания диска:
22 ноября 2019
Номер по каталогу:
LOS 223-2
Носитель:
WEB
Формат:
PCM
Тип рипа:
tracks+.cue
Контейнер:
APE (*.ape)
Количество каналов:
2.0
Разрядность/ЧД:
24/48
Битрейт аудио:
lossless
Время звучания:
00:48:25
Наличие сканов:
web
Страна-производитель диска (релиза):
Norway
Релизёр (источник):
M0p94ok
Лог проверки качества
foobar2000 1.6.2 / Dynamic Range Meter 1.1.1
log date: 2021-01-27 13:05:44

--------------------------------------------------------------------------------
Analyzed: Knut Riisnæs / The Kernel
--------------------------------------------------------------------------------

DR         Peak         RMS     Duration Track
--------------------------------------------------------------------------------
DR13      -0.25 dB   -15.72 dB      6:40 01-Around The Kernel
DR14      -0.25 dB   -15.90 dB      5:12 02-Living Next Door To Hjallis
DR13      -0.25 dB   -15.24 dB      5:19 03-La Mesha
DR11      -5.12 dB   -20.20 dB      2:10 04-Lady Day
DR14      -0.25 dB   -16.09 dB      4:46 05-West End Blues
DR15      -0.26 dB   -17.89 dB      7:35 06-Inner Circle
DR12      -1.93 dB   -18.70 dB      2:13 07-Reminiscence part 1
DR12      -1.40 dB   -15.61 dB      4:37 08-Reminiscence part 2
DR14      -0.26 dB   -17.47 dB      5:27 09-Midnight Waltz
DR14      -0.25 dB   -17.09 dB      4:30 10-Love And Peace
--------------------------------------------------------------------------------

Number of tracks:  10
Official DR value: DR13

Samplerate:        48000 Hz
Channels:          2
Bits per sample:   24
Bitrate:           1573 kbps
Codec:             FLAC
================================================================================
No seeders - write personal message to M0p94ok. Any questions - support@pro-jazz.com.
Нет сидеров - пишите в личку M0p94ok. Есть вопросы - support@pro-jazz.com
14:23
162
Нет комментариев. Ваш будет первым!