Поиск

2017 Jürg Wickihalder - Beyond {Intakt 277} [24-44,1]

2017 Jürg Wickihalder - Beyond {Intakt 277} [24-44,1]
Дата записи диска:
7 ноября - 8 ноября 2016
Место записи:
Loft, Köln, Germany
Дата издания диска:
21 апреля 2017
Издатель (лейбл):
Номер по каталогу:
277
Носитель:
WEB
Формат:
PCM
Тип рипа:
tracks+.cue
Контейнер:
APE (*.ape)
Количество каналов:
2.0
Разрядность/ЧД:
24/44,1
Битрейт аудио:
lossless
Время звучания:
00:53:18
Наличие сканов:
web
Страна-производитель диска (релиза):
Switzerland
Релизёр (источник):
M0p94ok
Лог проверки качества
foobar2000 1.6.2 / Dynamic Range Meter 1.1.1
log date: 2021-01-27 11:41:01

--------------------------------------------------------------------------------
Analyzed: Jürg Wickihalder / Beyond
--------------------------------------------------------------------------------

DR         Peak         RMS     Duration Track
--------------------------------------------------------------------------------
DR11      -0.24 dB   -13.23 dB      5:03 01-A New One
DR11      -0.20 dB   -15.91 dB      7:57 02-Relaxing in the Forest
DR11      -0.20 dB   -14.71 dB      8:19 03-The Valley
DR12      -0.20 dB   -14.16 dB      5:57 04-Return of Ulysses
DR12      -0.42 dB   -16.21 dB      6:27 05-Arts and Crafts
DR13      -2.20 dB   -19.21 dB      3:34 06-Süßholz: Süssholz
DR11      -0.20 dB   -14.41 dB      4:45 07-Dipper
DR14      -0.20 dB   -17.82 dB      5:02 08-Sing!
DR12      -1.29 dB   -18.97 dB      6:20 09-The Last Breath
--------------------------------------------------------------------------------

Number of tracks:  9
Official DR value: DR12

Samplerate:        44100 Hz
Channels:          2
Bits per sample:   24
Bitrate:           1317 kbps
Codec:             FLAC
================================================================================
No seeders - write personal message to M0p94ok. Any questions - support@pro-jazz.com.
Нет сидеров - пишите в личку M0p94ok. Есть вопросы - support@pro-jazz.com
12:47
166
Нет комментариев. Ваш будет первым!