Поиск

2019 Makoto Ozone feat. No Name Horses - Until We Vanish 15×15 {Universal} [24-96]

2019 Makoto Ozone feat. No Name Horses - Until We Vanish 15×15 {Universal} [24-96]
Дата издания диска:
4 декабря 2019
Издатель (лейбл):
Номер по каталогу:
UCCJ-2175
Носитель:
WEB
Формат:
PCM
Тип рипа:
tracks
Контейнер:
FLAC (*.flac)
Количество каналов:
2.0
Разрядность/ЧД:
24/96
Битрейт аудио:
lossless
Наличие сканов:
только обложка

1. You're My Heaven, You're My Hell  07:19
2. Carrots Or Bread?  06:11
3. I Try To Imagine  07:35
4. Rainbow  07:25
5. Camellia  07:14
6. 12 Colors  07:51
7. Little Bird Blues  06:18
8. Until We Vanish  09:53
9. Time Thread  06:34

Состав:
  • Acoustic Bass, Electric Bass – Kengo Nakamura
  • Alto Saxophone, Flute – Atsushi Ikeda
  • Alto Saxophone, Soprano Saxophone, Flute – Kazuhiko Kondo
  • Baritone Saxophone, Bass Clarinet – Yoshihiro Iwamochi
  • Bass Trombone – Junko Yamashiro
  • Electric Guitar – Ryunosuke Yamagishi
  • Piano, Organ – Makoto Ozone
  • Tenor Saxophone – Toshio Miki
  • Tenor Saxophone, Clarinet – Masanori Okazaki
  • Trombone – Eijiro Nakagawa, Marshall Gilkes
  • Trumpet, Flugelhorn – Eric Miyashiro, Mitsukuni Kohata, Sho Okumura, Yoshiro Okazaki
Лог проверки качества
foobar2000 1.6.2 / Dynamic Range Meter 1.1.1
log date: 2021-11-15 15:07:17

--------------------------------------------------------------------------------
Analyzed: Makoto Ozone Featuring No Name Horses / Until We Vanish 15×15
--------------------------------------------------------------------------------

DR         Peak         RMS     Duration Track
--------------------------------------------------------------------------------
DR8       -0.75 dB   -13.25 dB      7:19 01-You're My Heaven, You're My Hell
DR12      -1.78 dB   -17.04 dB      6:12 02-Carrots Or Bread?
DR15      -0.51 dB   -20.78 dB      7:35 03-I Try To Imagine
DR13      -0.51 dB   -17.73 dB      7:25 04-Rainbow
DR13      -0.51 dB   -17.99 dB      7:14 05-Camellia
DR13      -0.51 dB   -17.31 dB      7:51 06-12 Colors
DR12      -1.51 dB   -17.57 dB      6:19 07-Little Bird Blues
DR9       -2.27 dB   -13.60 dB     10:01 08-Until We Vanish
DR12      -4.51 dB   -20.24 dB      6:35 09-Time Thread
--------------------------------------------------------------------------------

Number of tracks:  9
Official DR value: DR12

Samplerate:        96000 Hz
Channels:          2
Bits per sample:   24
Bitrate:           2590 kbps
Codec:             FLAC
================================================================================
Скачивание доступно после регистрации!!
Приватный:
Нет (DHT включён)
Размер:
1.25 Гб (1,345,907,485 байт) » файлов: 11
Участники:
14 раздают, 0 качают (14 участников всего)
Внешние участники:
--- [ Обновить ]
16:22
544
Нет комментариев. Ваш будет первым!